Во всем виноват енот / Wakefield (Робин Суикорд) [2016 г., драма, BDRip-AVC] [DUB (iTunes)]

 
Автор Сообщение

Bathory ®

Пол:

Стаж: 1 год 9 месяцев

Сообщений: 320



Награды: 3 (Подробнее)

Girls (Количество: 1) Друг (Количество: 1) За внесенный вклад в развитие сайта (Количество: 1)
Торрент-статистика

Создавать темы 06-Авг-2017 11:27

[Цитировать]

Во всем виноват енот / Wakefield- Информация о фильме
Название: Во всем виноват енот
Оригинальное название: Wakefield
Год выхода: 2016
Жанр: драма
Режиссер: Робин Суикорд
В ролях: Брайан Крэнстон, Йен Энтони Дэйл, Дженнифер Гарнер, Беверли Д’Анджело, Джейсон О’Мара, Пиппа Беннетт-Уорнер, Эллери Спрейберри, Виктория Бруно, Моника Лосон, Исаак Лейва
О фильме:
Говард Уэйкфилд, преуспевающий юрист, верный муж, заботливый отец двух дочерей, однажды круто изменил свою жизнь. Это произошло внезапно, когда он подходил к родному роскошному гнездышку в пригороде Нью-Йорка. Погнавшись за наглым енотом, сидевшим у него на пути, Уэйкфилд оказался на чердаке заброшенного гаража, откуда были видны светящиеся окна его гостиной. Накрыт стол, домочадцы ждут отца. «А что будет, если я пропаду? Будут ли плакать любящие крошки? Быстро ли жена найдет мне замену? Помрут ли они с голоду без моих доходов?» — подумал Говард и решил… остаться жить на чердаке.

Страна: США
Студия: Mockingbird Pictures, Dominion Pictures
Продолжительность: 01:48:42
Перевод: Дубляж (iTunes)
Файл
Кодек: AVC
Качество: BDRip-AVC
Видео: 752x320, 884 kbps, 23,976 fps, 0,153 Bits/(Pixel*Frame)
Звук: AAC, 48 kHz, 2 ch, 72 kbps
Субтитры: Нет

MI

Общее
Unique ID : 196059433054938422383576343769780564110 (0x937FAC5D63AF4947959778DC66A3B08E)
Complete name : D:\Wakefield.2016.BDRip-AVC.744.MegaPeer.mkv
Format : Matroska
Format version : Version 4 / Version 2
File size : 744 Мбайт
Duration : 1 ч. 48 м.
Overall bit rate : 956 Кбит/сек
Encoded date : UTC 2017-08-06 11:18:24
Writing application : mkvmerge v14.0.0 ('Flow') 64bit
Writing library : libebml v1.3.4 + libmatroska v1.4.5
Видео
ID : 1
Format : AVC
Format/Info : Advanced Video Codec
Format profile : High@L4.1
Format settings, CABAC : Да
Format settings, ReFrames : 12 кадров
Codec ID : V_MPEG4/ISO/AVC
Duration : 1 ч. 48 м.
Bit rate : 884 Кбит/сек
Width : 752 пикселя
Height : 320 пикселей
Display aspect ratio : 2,35:1
Frame rate mode : Постоянный
Frame rate : 23,976 (24000/1001) кадра/сек
Color space : YUV
Chroma subsampling : 4:2:0
Bit depth : 8 бит
Scan type : Прогрессивная
Bits/(Pixel*Frame) : 0.153
Stream size : 686 Мбайт (92%)
Writing library : x264 core 152 r2851 ba24899
Encoding settings : cabac=1 / ref=12 / deblock=1:-2:-2 / analyse=0x3:0x133 / me=umh / subme=11 / psy=1 / psy_rd=1.02:0.08 / mixed_ref=1 / me_range=32 / chroma_me=1 / trellis=2 / 8x8dct=1 / cqm=0 / deadzone=21,11 / fast_pskip=0 / chroma_qp_offset=-3 / threads=10 / lookahead_threads=2 / sliced_threads=0 / nr=0 / decimate=0 / interlaced=0 / bluray_compat=0 / constrained_intra=0 / bframes=14 / b_pyramid=2 / b_adapt=2 / b_bias=0 / direct=3 / weightb=1 / open_gop=0 / weightp=2 / keyint=240 / keyint_min=23 / scenecut=0 / intra_refresh=0 / rc_lookahead=60 / rc=2pass / mbtree=1 / bitrate=884 / ratetol=1.0 / qcomp=0.60 / qpmin=0 / qpmax=51 / qpstep=4 / cplxblur=15.0 / qblur=0.5 / vbv_maxrate=50000 / vbv_bufsize=62500 / nal_hrd=none / filler=0 / ip_ratio=1.40 / aq=1:1.00
Default : Да
Forced : Нет
Аудио
ID : 2
Format : AAC
Format/Info : Advanced Audio Codec
Format profile : LC
Codec ID : A_AAC
Duration : 1 ч. 48 м.
Bit rate : 72,0 Кбит/сек
Channel(s) : 2 канала
Channel positions : Front: L R
Sampling rate : 48,0 КГц
Frame rate : 46,875 кадров/сек (1024 spf)
Compression mode : С потерями
Stream size : 56,0 Мбайт (8%)
Language : Russian
Default : Да
Forced : Нет

Скриншоты

Релиз:
[Профиль] [ЛС]
Кто просматривает тему:

Показать сообщения:    

Текущее время: Сегодня 13:10

Часовой пояс: GMT



Вы не можете начинать темы
Вы не можете отвечать на сообщения
Вы не можете редактировать свои сообщения
Вы не можете удалять свои сообщения
Вы не можете голосовать в опросах
Вы не можете прикреплять файлы к сообщениям
Вы не можете скачивать файлы