Во власти женщины / Tatt av kvinnen (Петтер Нэсс / Petter Ness) [2007, Норвегия, комедия, мелодрама, драма, DVDRip] MVO + Sub Rus + Original Nor

 
Автор Сообщение

TorrentFilm ®

Пол:

Стаж: 2 года

Сообщений: 7741



Награды: Нет

Торрент-статистика

Создавать темы 05-Авг-2015 00:09

[Цитировать]

Во власти женщины / Tatt av kvinnen
Страна: Норвегия
Жанр: комедия, мелодрама, драма
Год выпуска: 2007
Продолжительность: 01:26:55
Перевод: Профессиональный (многоголосый закадровый)
Cубтитры: русские
Оригинальная аудиодорожка: норвежский

Режиссер: Петтер Нэсс / Petter Ness
В ролях: Тронд Фауса Аурвааг, Мариан Саастад Оттесен, Анна Гуттормсгаард, Стен Люнггрен, Хенрик Местад, Ингар Хэльге Гимле, Луиз Антуан
Описание: Что делать, если твоя жизнь зашла в тупик? Если твоя подруга изменяет тебе, а тебе очень нравится милая девушка из Франции. Наверное, только утопиться... в бассейне. Но это не выход из положения. И поэтому молодой норвежский художник готов подарить миллион алых роз своей французской возлюбленной и переехать к ней жить навсегда
Качество видео: DVDRip
Формат видео: AVI
Видео: 704x304 (2.32:1), 25 fps, XviD build 73 ~1940 kbps avg, 0.36 bit/pixel
Аудио: 48 kHz, AC3 Dolby Digital, 3/2 (L,C,R,l,r) + LFE ch, ~448 kbps - многоголосый
Аудио: 48 kHz, AC3 Dolby Digital, 3/2 (L,C,R,l,r) + LFE ch, ~448 kbps - оригинал (отдельным файлом)

MediaInfo

Общее
Полное имя : H:\Tatt.av.kvinnen.2007.dvdrip_[1.46]_[teko]\Tatt.av.kvinnen.2007.dvdrip_[1.46].avi
Формат : AVI
Формат/Информация : Audio Video Interleave
Размер файла : 1,46 Гбайт
Продолжительность : 1 ч. 26 м.
Общий поток : 2399 Кбит/сек
Программа кодирования : VirtualDubMod 1.5.10.3 | www.virtualdub-fr.org || (build 2550/release)
Библиотека кодирования : VirtualDubMod build 2550/release
Видео
Идентификатор : 0
Формат : MPEG-4 Visual
Профиль формата : Advanced Simple@L5
Параметр BVOP формата : 1
Параметр QPel формата : Нет
Параметр GMC формата : Без точки перехода
Параметр матрицы формата : Выборочная
Идентификатор кодека : XVID
Идентификатор кодека/Подсказка : XviD
Продолжительность : 1 ч. 26 м.
Битрейт : 1941 Кбит/сек
Ширина : 704 пикселя
Высота : 304 пикселя
Соотношение сторон : 2,35:1
Частота кадров : 25,000 кадров/сек
Цветовое пространство : YUV
Субдискретизация насыщенности : 4:2:0
Битовая глубина : 8 бит
Тип развёртки : Прогрессивная
Метод сжатия : С потерями
Бит/(Пиксели*Кадры) : 0.363
Размер потока : 1,18 Гбайт (81%)
Библиотека кодирования : XviD 73
Аудио
Идентификатор : 1
Формат : AC-3
Формат/Информация : Audio Coding 3
Расширение режима : CM (complete main)
Параметр Endianness формата : Big
Идентификатор кодека : 2000
Продолжительность : 1 ч. 26 м.
Вид битрейта : Постоянный
Битрейт : 448 Кбит/сек
Каналы : 6 каналов
Расположение каналов : Front: L C R, Side: L R, LFE
Частота : 48,0 КГц
Битовая глубина : 16 бит
Метод сжатия : С потерями
Размер потока : 279 Мбайт (19%)
Выравнивание : Разделение по промежуткам
Продолжительность промежутка : 40 мс. (1,00 видеокадр)
Время предзагрузки промежутка : 500 мс.
Релиз группы:
--
[Профиль] [ЛС]

Создавать темы 06-Авг-2015 22:23 (спустя 1 день 22 часа)

Топик был перенесен из форума Фильмы до 2014 года в форум Фильмы до 2012 года
sergej644
 
Кто просматривает тему:

Показать сообщения:    

Текущее время: Сегодня 17:33

Часовой пояс: GMT



Вы не можете начинать темы
Вы не можете отвечать на сообщения
Вы не можете редактировать свои сообщения
Вы не можете удалять свои сообщения
Вы не можете голосовать в опросах
Вы не можете прикреплять файлы к сообщениям
Вы не можете скачивать файлы