Вояж по-французски (Друзья во Франции) / Amis d\'en France / 1-3 сезоны, 20 серий из 36 [2008-2010, Документальный, познавательный, HDTV 1080i]

 
Автор Сообщение

TorrentFilm ®

Пол:

Стаж: 2 года

Сообщений: 7741



Награды: Нет

Торрент-статистика

Создавать темы 19-Июл-2015 00:08

[Цитировать]

Вояж по-французски(Друзья во Франции)Amis d'en France
-Годы выпуска: 2008-2010
Страна: Франция
Производство: Voyage / Point du Jour Production
Жанр: Документальный, познавательный, путешествия, Франция
Продолжительность: 20 x ~00:26:30
Режиссёр: Жан-Филипп Урбаш (Jean-Philippe Urbach)
В главных ролях: Роксана Фриас (Roxanne Frias), Микаэль Зазун (Michael Zazoun), Рено Фаро (Renaud Faroux)-Перевод: Профессиональный (двухголосый, закадровый) [Студия АРК-ТВ: Александр Гаврилин, Ольга Зубкова]
Русские субтитры: нет-Описание: Знакомьтесь - эксцентричное трио с французским чувством юмора: Микаэль, Роксана и Рено. Каждые выходные они отправляются в путешествие по французским городам и регионам. Профессиональные гиды рассказывают им о местной истории и показывают самые интересные места. А в лучших ресторанах они пробуют традиционные местные блюда. У каждого из ведущих есть свои интересы. Роксана одержима здоровым образом жизни, и её интересует всё, что связано с красотой и спортом. Микаэль - утонченный гурман, его страсть – вкусная еда. Рено – интеллектуал, не на шутку увлеченный историей. А все вместе они представляют собой уникальный путеводитель в путешествиях по лучшим городам Франции.-Тип релиза: HDTV 1080i
Контейнер: MKV-Видео: AVC H.264, 1920x1080i (16:9), 50i fps, ~7366 kbps, ~0.14,2 bits/pixel
Аудио: Russian, MP2, 48KHz, 2 channels, 192 kbps-Источник: HDTV-запись с телеканала Travel+Adventure HD от san007-Сэмпл видео-Дополнительная информация: Телеканал Travel+Adventure HD почти во всех своих программах обрезает финальные титры (исключение - "Общепит" и "Базарный день"). Поэтому не удивляйтесь тому, что каждая серия будет резко заканчиваться через 1-2 секунды после последнего слова сказанного переводчиком.
В раздачу включен трейлер передачи который выполняет роль семпла. Вы можете сначала скачать только этот трейлер и оценить по нему качество картинки и суть самой передачи.
-Раздача в HDTVRip 720p

Раздачи с Travel+Adventure HD

Путешествие на край света с Артом Вольфом: 1080i, 720p
О чем не напишут в путеводителе: 1080i, 720p
Каменные джунгли: 1080i, 720p
Путешествие за красотой: 1080i, 720p
Приключения на троих: 1080i, 720p
Путешествие по священной реке Ганг: 1080i, 720p

Список эпизодов

Amis d'en France - Trailer
S01E01 Mont-Saint-Michel / Мон-Сен-Мишель
S01E02 Lyon / Лион
S01E03 Lille / Лилль
S01E04 Megève / Межев
S01E05 Gérardmer / Жерарме
S01E06 Amiens / Амьен
S01E07 Colmard / Кольмар

S01E08 Sarlat / Сарла - нет
S01E09 Paris / Париж
S01E10 Marseille / Марсель
S01E11 Arles / Арль
S01E12 Versailles / Версаль

S01E13 Haute-Corse / Верхняя Корсика - нет
S01E14 Corce-du-Sud / Южная Корсика
S01E15 Île de Ré / Остров Ре

S02E01 Quiberon / Куберон
S02E02 Luberon / Люберон
S02E03 Duarnenez / Дуарнене
S02E04 Nice / Ницца
S02E05 Bordeaux / Бордо
S02E06 Chamonix-Mont-Blanc / Шамони-Монблан
S02E07 Mayotte / Майотта
S02E08 Réunion / Реюньон*
S02E09 Strasbourg / Страсбург
S02E10 Dijon / Дижон*
S02E11 Albi / Альби*
S02E12 Blois / Блуа
S02E13 Le Havre / Гавр*

S03E01 Séte / Сет
S03E02 Saint-Jean-De-Luz / Сен-Жан-де-Люз
S03E03 La Rochelle / Ла-Рошель
S03E04 Montpellier / Монпелье
S03E05 Saint-Malo / Сен-Мало
S03E06 Toulouse / Тулуза*
S03E07 Besançon / Безансон*
S03E08 Carcasonne / Каркасон

* - присутствует оригинальная французская аудиодорожка

MediaInfo

General
Format : Matroska
Format version : Version 4 / Version 2
File size : 1.52 GiB
Duration : 28mn 16s
Overall bit rate : 7 711 Kbps
Writing application : mkvmerge v7.7.0 ('Six Voices') 64bit
Writing library : libebml v1.3.1 + libmatroska v1.4.2
Video #1
ID : 1
Format : AVC
Format/Info : Advanced Video Codec
Format profile : High@L4.0
Format settings, CABAC : Yes
Format settings, ReFrames : 4 frames
Codec ID : V_MPEG4/ISO/AVC
Duration : 28mn 16s
Bit rate : 7 366 Kbps
Width : 1 920 pixels
Height : 1 080 pixels
Display aspect ratio : 16:9
Frame rate mode : Constant
Frame rate : 25.000 fps
Color space : YUV
Chroma subsampling : 4:2:0
Bit depth : 8 bits
Scan type : MBAFF
Bits/(Pixel*Frame) : 0.142
Stream size : 1.45 GiB (96%)
Default : Yes
Forced : No
Audio #2
ID : 2
Format : MPEG Audio
Format version : Version 1
Format profile : Layer 2
Mode : Joint stereo
Mode extension : Intensity Stereo + MS Stereo
Codec ID : A_MPEG/L2
Codec ID/Hint : MP2
Duration : 28mn 16s
Bit rate mode : Constant
Bit rate : 192 Kbps
Channel(s) : 2 channels
Sampling rate : 48.0 KHz
Compression mode : Lossy
Stream size : 38.8 MiB (2%)
Title : Russian
Language : Russian
Default : Yes
Forced : No
[Профиль] [ЛС]
Кто просматривает тему:

Показать сообщения:    

Текущее время: Сегодня 12:14

Часовой пояс: GMT



Вы не можете начинать темы
Вы не можете отвечать на сообщения
Вы не можете редактировать свои сообщения
Вы не можете удалять свои сообщения
Вы не можете голосовать в опросах
Вы не можете прикреплять файлы к сообщениям
Вы не можете скачивать файлы