Вояж по-французски (Друзья во Франции) / Amis d\'en France (Жан-Филипп Урбаш / Jean-Philippe Urbach) / 1-3 сезоны, 34 серии из 36 [2008-2010, Документальный, познавательный, HDTVRip 720p]

 
Автор Сообщение

TorrentFilm ®

Пол:

Стаж: 2 года

Сообщений: 7741



Награды: Нет

Торрент-статистика

Создавать темы 17-Июл-2015 00:07

[Цитировать]

Вояж по-французски(Друзья во Франции)Amis d'en France
-Годы выпуска: 2008-2010
Страна: Франция
Производство: Voyage / Point du Jour Production
Жанр: Документальный, познавательный, путешествия, Франция
Продолжительность: 34 x ~00:26:30
Режиссёр: Жан-Филипп Урбаш (Jean-Philippe Urbach)
В главных ролях: Роксана Фриас (Roxanne Frias), Микаэль Зазун (Michael Zazoun), Рено Фаро (Renaud Faroux)-Перевод: Профессиональный (двухголосый, закадровый) [Студия АРК-ТВ: Александр Гаврилин, Ольга Зубкова]
Русские субтитры: нет-Описание: Знакомьтесь - эксцентричное трио с французским чувством юмора: Микаэль, Роксана и Рено. Каждые выходные они отправляются в путешествие по французским городам и регионам. Профессиональные гиды рассказывают им о местной истории и показывают самые интересные места. А в лучших ресторанах они пробуют традиционные местные блюда. У каждого из ведущих есть свои интересы. Роксана одержима здоровым образом жизни, и её интересует всё, что связано с красотой и спортом. Микаэль - утонченный гурман, его страсть – вкусная еда. Рено – интеллектуал, не на шутку увлеченный историей. А все вместе они представляют собой уникальный путеводитель в путешествиях по лучшим городам Франции.-Тип релиза: HDTVRip 720p
Контейнер: MKV-Видео: AVC H.264, 1280x720p (16:9), 25p fps, ~3270 kbps, ~0.14,2 bits/pixel
Аудио: Russian, MP2, 48KHz, 2 channels, 192 kbps-Источник: Рип с HDTV-записи телеканала Travel+Adventure HD
Автор рипа - san007-Сэмпл видео-Дополнительная информация: Телеканал Travel+Adventure HD почти во всех своих программах обрезает финальные титры (исключение - "Общепит" и "Базарный день"). Поэтому не удивляйтесь тому, что каждая серия будет резко заканчиваться через 1-2 секунды после последнего слова сказанного переводчиком.
В раздачу включен трейлер передачи который выполняет роль семпла. Вы можете сначала скачать только этот трейлер и оценить по нему качество картинки и суть самой передачи.
-Раздача в HDTV 1080i

Раздачи с Travel+Adventure HD

Путешествие на край света с Артом Вольфом: 1080i, 720p
О чем не напишут в путеводителе: 1080i, 720p
Каменные джунгли: 1080i, 720p
Путешествие за красотой: 1080i, 720p
Приключения на троих: 1080i, 720p
Путешествие по священной реке Ганг: 1080i, 720p

Список эпизодов

Amis d'en France - Trailer
S01E01 Mont-Saint-Michel / Мон-Сен-Мишель
S01E02 Lyon / Лион
S01E03 Lille / Лилль
S01E04 Megève / Межев
S01E05 Gérardmer / Жерарме
S01E06 Amiens / Амьен
S01E07 Colmard / Кольмар

S01E08 Sarlat / Сарла - нет
S01E09 Paris / Париж
S01E10 Marseille / Марсель
S01E11 Arles / Арль
S01E12 Versailles / Версаль

S01E13 Haute-Corse / Верхняя Корсика - нет
S01E14 Corce-du-Sud / Южная Корсика
S01E15 Île de Ré / Остров Ре

S02E01 Quiberon / Куберон
S02E02 Luberon / Люберон
S02E03 Duarnenez / Дуарнене
S02E04 Nice / Ницца
S02E05 Bordeaux / Бордо
S02E06 Chamonix-Mont-Blanc / Шамони-Монблан
S02E07 Mayotte / Майотта
S02E08 Réunion / Реюньон*
S02E09 Strasbourg / Страсбург
S02E10 Dijon / Дижон*
S02E11 Albi / Альби*
S02E12 Blois / Блуа
S02E13 Le Havre / Гавр*

S03E01 Séte / Сет
S03E02 Saint-Jean-De-Luz / Сен-Жан-де-Люз
S03E03 La Rochelle / Ла-Рошель
S03E04 Montpellier / Монпелье
S03E05 Saint-Malo / Сен-Мало
S03E06 Toulouse / Тулуза*
S03E07 Besançon / Безансон*
S03E08 Carcasonne / Каркасон

* - присутствует оригинальная французская аудиодорожка

MediaInfo

General
Format : Matroska
Format version : Version 4 / Version 2
File size : 701 MiB
Duration : 28mn 16s
Overall bit rate : 3 463 Kbps
Writing application : mkvmerge v7.7.0 ('Six Voices') 64bit
Writing library : libebml v1.3.1 + libmatroska v1.4.2
Video #1
ID : 1
Format : AVC
Format/Info : Advanced Video Codec
Format profile : High@L4.1
Format settings, CABAC : Yes
Format settings, ReFrames : 8 frames
Codec ID : V_MPEG4/ISO/AVC
Duration : 28mn 16s
Bit rate : 3 270 Kbps
Width : 1 280 pixels
Height : 720 pixels
Display aspect ratio : 16:9
Frame rate mode : Constant
Frame rate : 25.000 fps
Color space : YUV
Chroma subsampling : 4:2:0
Bit depth : 8 bits
Scan type : Progressive
Bits/(Pixel*Frame) : 0.142
Stream size : 648 MiB (92%)
Writing library : x264 core 146 r2538kMod 121396c
Encoding settings : cabac=1 / ref=8 / deblock=1:-1:-1 / analyse=0x3:0x133 / me=umh / subme=9 / psy=1 / fade_compensate=0.00 / psy_rd=1.00:0.10 / mixed_ref=1 / me_range=24 / chroma_me=1 / trellis=2 / 8x8dct=1 / cqm=0 / deadzone=21,11 / fast_pskip=1 / chroma_qp_offset=-3 / threads=6 / lookahead_threads=1 / sliced_threads=0 / nr=0 / decimate=1 / interlaced=0 / bluray_compat=0 / constrained_intra=0 / fgo=0 / bframes=8 / b_pyramid=2 / b_adapt=2 / b_bias=0 / direct=3 / weightb=1 / open_gop=0 / weightp=2 / keyint=250 / keyint_min=25 / scenecut=40 / intra_refresh=0 / rc_lookahead=60 / rc=2pass / mbtree=1 / bitrate=3270 / ratetol=1.0 / qcomp=0.60 / qpmin=0 / qpmax=69 / qpstep=4 / cplxblur=20.0 / qblur=0.5 / ip_ratio=1.40 / aq=1:1.00
Default : Yes
Forced : No
Audio #2
ID : 2
Format : MPEG Audio
Format version : Version 1
Format profile : Layer 2
Mode : Joint stereo
Mode extension : Intensity Stereo + MS Stereo
Codec ID : A_MPEG/L2
Codec ID/Hint : MP2
Duration : 28mn 16s
Bit rate mode : Constant
Bit rate : 192 Kbps
Channel(s) : 2 channels
Sampling rate : 48.0 KHz
Compression mode : Lossy
Stream size : 38.8 MiB (6%)
Title : Russian
Language : Russian
Default : Yes
Forced : No
[Профиль] [ЛС]
Кто просматривает тему:

Показать сообщения:    

Текущее время: Сегодня 04:30

Часовой пояс: GMT



Вы не можете начинать темы
Вы не можете отвечать на сообщения
Вы не можете редактировать свои сообщения
Вы не можете удалять свои сообщения
Вы не можете голосовать в опросах
Вы не можете прикреплять файлы к сообщениям
Вы не можете скачивать файлы