Вот так чемпионы! / Putukate suve - mängud (Хейно Парс) [1971, кукольный мультфильм, WEBRip] VO + Rus Sub

 
Автор Сообщение

TorrentFilm ®

Пол:

Стаж: 2 года

Сообщений: 7741



Награды: Нет

Торрент-статистика

Создавать темы 10-Июн-2015 00:04

[Цитировать]

Вот так чемпионы! / Putukate suvemängud
Страна: СССР
Производство: Таллинфильм
Жанр: кукольный мультфильм
Продолжительность: 00:19:14
Год выпуска: 1971
Перевод: Одноголосый закадровый progulkin
Русские субтитры: есть
Режиссёр: Хейно Парс
Описание: О лесной Олимпиаде, в которой принимают участие всякая мелкая живность.
Кинопоиск
Качество: WEBRip
Формат: AVI
Видео: 640x448 (1.43:1), 25 fps, XviD MPEG-4 ~2155 kbps avg, 0.301 bit/pixel
Аудио: 48.0 kHz, MPEG Layer 3, 2 ch, ~128.00 kbps avg - русский
Аудио 2: 48.0 kHz, MPEG Layer 3, 2 ch, ~128.00 kbps avg - эстонский
Субтитры: русские (SRT)

Подробные технические данные

GeneralComplete name : E:\1\мультики\Вот так чемпионы 1971\Вот так чемпионы 1971.aviFormat : AVIFormat/Info : Audio Video InterleaveFile size : 334 MiBDuration : 19mn 14sOverall bit rate : 2 425 KbpsWriting application : VirtualDubMod 1.5.10.2 (build 2540/release)Writing library : VirtualDubMod build 2540/release
VideoID : 0Format : MPEG-4 VisualFormat profile : Advanced Simple@L5Format settings, BVOP : 2Format settings, QPel : NoFormat settings, GMC : No warppointsFormat settings, Matrix : Default (H.263)Codec ID : XVIDCodec ID/Hint : XviDDuration : 19mn 14sBit rate : 2 155 KbpsWidth : 640 pixelsHeight : 448 pixelsDisplay aspect ratio : 1.429Frame rate : 25.000 fpsColor space : YUVChroma subsampling : 4:2:0Bit depth : 8 bitsScan type : ProgressiveCompression mode : LossyBits/(Pixel*Frame) : 0.301Stream size : 297 MiB (89%)Writing library : XviD 64
Audio #1ID : 1Format : MPEG AudioFormat version : Version 1Format profile : Layer 3Mode : Joint stereoMode extension : MS StereoCodec ID : 55Codec ID/Hint : MP3Duration : 19mn 14sBit rate mode : ConstantBit rate : 128 KbpsChannel count : 2 channelsSampling rate : 48.0 KHzCompression mode : LossyStream size : 17.6 MiB (5%)Alignment : Aligned on interleavesInterleave, duration : 40 ms (1.00 video frame)Interleave, preload duration : 504 ms
Audio #2ID : 2Format : MPEG AudioFormat version : Version 1Format profile : Layer 3Mode : Joint stereoMode extension : MS StereoCodec ID : 55Codec ID/Hint : MP3Duration : 19mn 14sBit rate mode : ConstantBit rate : 128 KbpsChannel count : 2 channelsSampling rate : 48.0 KHzCompression mode : LossyStream size : 17.6 MiB (5%)Alignment : Aligned on interleavesInterleave, duration : 40 ms (1.00 video frame)Interleave, preload duration : 504 ms

Скриншоты

[Профиль] [ЛС]
Кто просматривает тему:

Показать сообщения:    

Текущее время: Сегодня 08:19

Часовой пояс: GMT



Вы не можете начинать темы
Вы не можете отвечать на сообщения
Вы не можете редактировать свои сообщения
Вы не можете удалять свои сообщения
Вы не можете голосовать в опросах
Вы не можете прикреплять файлы к сообщениям
Вы не можете скачивать файлы