Вот какой рассеянный (Марианна Новогрудская) [1975, Рисованный мультфильм, DVDRip]

 
Автор Сообщение

TorrentFilm ®

Пол:

Стаж: 2 года

Сообщений: 7741



Награды: Нет

Торрент-статистика

Создавать темы 15-Сен-2015 00:11

[Цитировать]

Вот какой рассеянный
Страна: СССР
Жанр: Рисованный мультфильм
Продолжительность: 00:10:09
Год выпуска: 1975
Русские субтитры: нет
Режиссёр: Марианна Новогрудская
Роли озвучивали: Александр Лившиц, Александр Ливинбук
Описание: По одноимённому стихотворению Самуила Маршака. Про рассеянного и забывчивого человека, который всё делает наперекосяк и постоянно попадает в неловкие ситуации.
Доп. информация:
«Союзмультфильм»
автор сценария Владимир Голованов,
художник-постановщик Галина Беда,
оператор Эрнст Гаман,
композитор Алексей Рыбников
Раздача группы:
Рип by
Качество: DVDRip
Формат: AVI
Видео: 640x480 (1.33:1), 25 fps, XviD Final 1.0.3 (build 37) ~1804 kbps avg, 0.23 bit/pixel
Аудио: 48 kHz, MPEG Layer 3, 2 ch, ~128.00 kbps avg
Субтитры: нет

Подробные технические данные

Format : AVIFormat/Info : Audio Video InterleaveFile size : 141 MiBDuration : 10mn 9sOverall bit rate : 1 942 KbpsWriting application : VirtualDubMod 1.5.10.1 Рус от Stvens Inc.™ www.stvens.amillo.net (build 2439/release)Writing library : VirtualDubMod build 2439/release
VideoID : 0Format : MPEG-4 VisualFormat profile : Advanced Simple@L5Format settings, BVOP : 1Format settings, QPel : NoFormat settings, GMC : No warppointsFormat settings, Matrix : Default (MPEG)Muxing mode : Packed bitstreamCodec ID : XVIDCodec ID/Hint : XviDDuration : 10mn 9sBit rate : 1 804 KbpsWidth : 640 pixelsHeight : 480 pixelsDisplay aspect ratio : 4:3Frame rate : 25.000 fpsColor space : YUVChroma subsampling : 4:2:0Bit depth : 8 bitsScan type : ProgressiveCompression mode : LossyBits/(Pixel*Frame) : 0.235Stream size : 131 MiB (93%)Writing library : XviD 1.0.3 (UTC 2004-12-20)
AudioID : 1Format : MPEG AudioFormat version : Version 1Format profile : Layer 3Mode : Joint stereoCodec ID : 55Codec ID/Hint : MP3Duration : 10mn 9sBit rate mode : ConstantBit rate : 128 KbpsChannel(s) : 2 channelsSampling rate : 48.0 KHzCompression mode : LossyStream size : 9.30 MiB (7%)Alignment : Aligned on interleavesInterleave, duration : 40 ms (1.00 video frame)Interleave, preload duration : 504 ms

Скриншоты

[Профиль] [ЛС]
Кто просматривает тему:

Показать сообщения:    

Текущее время: Сегодня 00:47

Часовой пояс: GMT



Вы не можете начинать темы
Вы не можете отвечать на сообщения
Вы не можете редактировать свои сообщения
Вы не можете удалять свои сообщения
Вы не можете голосовать в опросах
Вы не можете прикреплять файлы к сообщениям
Вы не можете скачивать файлы