Восхождение Юпитер / Jupiter Ascending (2015) BDRip 1080p от Rustorka | 60 fps | Лицензия

 
Автор Сообщение

Swager ®

Пол:

Стаж: 3 года

Сообщений: 1831



Награды: 4 (Подробнее)

За внесенный вклад в развитие сайта (Количество: 1) Mega Seeder 1 (Количество: 1) Top Releaser 2 (Количество: 1)
Торрент-статистика

Создавать темы 08-Июл-2018 06:52

[Цитировать]

Название: Восхождение Юпитер
Оригинальное название: Jupiter Ascending
Год выхода: 2015
Жанр: фантастика, боевик, приключения
Режиссер: Лана Вачовски / Lana Wachowski, Лилли Вачовски / Lilly Wachowski
В ролях: Ченнинг Татум (Caine Wise), Мила Кунис (Jupiter Jones), Шон Бин (Stinger Apini), Эдди Редмэйн (Balem Abrasax), Дуглас Бут (Titus Abrasax), Таппенс Мидлтон (Kalique Abrasax), Никки Амука-Бёрд (Diomika Tsing), Кристина Коул (Gemma Chatterjee), Николас А. Ньюман (Nesh), Рамон Тикарам (Phylo Percadium), Эрион Бакаре (Greeghan), Мария Дойл Кеннеди (Aleksa)
О фильме: Юпитер Джонс родилась под ночным небом, и все знаки предсказывали, что девочке предстоят великие свершения. Юпитер выросла и каждый день видит во сне звезды, но просыпается в жесткой реальности, где она работает уборщицей и моет туалеты. Личная жизнь Юпитер тоже оставляет желать лучшего, пока девушка не встречает Кейна. Кейн, бывший военный охотник, прибывает на Землю, чтобы отыскать Юпитер и раскрыть девушке ее истинное предназначение. Благодаря своим генетическим особенностям Юпитер становится претенденткой невероятного наследия, способного изменить равновесие во Вселенной.

Страна: США, Австралия
Продолжительность: 02:07:34
Перевод: Профессиональный (полное дублирование) [Лицензия]
Формат: MKV
Качество: BDRip 1080p 60 fps (Источник: BDRemux 1080p)
Видео: MPEG-4 AVC, 1920x800 (2.40:1), 12.0 Mbps, 59,940 fps, 0,130 bpp
Аудио №1: Русский / AC3 / 5.1 / 48 kHz / 448 kbps / 16 bit
Аудио №2: Украинский / AC3 / 2.0 / 48 kHz / 192 kbps / 16 bit
Аудио №3: Английский / AC3 / 5.1 / 48 kHz / 448 kbps / 16 bit
Субтитры:Русские (forced, full), Украинские (forced), Английские (full, SDH, SDH-Colored
Релиз от:
Автор релиза:

Скриншоты

Media Info

General
Unique ID : 223977081673219770817801896888914910324 (0xA8806AB65C2570511EBA601880A79C74)
Complete name : E:Jupiter.Ascending.BDRip1080p.60FPS.and77200.mkv
Format : Matroska
Format version : Version 4 / Version 2
File size : 11.6 GiB
Duration : 2h 7mn
Overall bit rate : 13.1 Mbps
Movie name : Восхождение Юпитер - 2015.and77200
Encoded date : UTC 2018-07-07 08:30:02
Writing application : mkvmerge v20.0.0 ('I Am The Sun') 64-bit
Writing library : libebml v1.3.5 + libmatroska v1.4.8
DURATION : 02:07:34.336000000
NUMBER_OF_FRAMES : 239198
NUMBER_OF_BYTES : 428642816
_STATISTICS_WRITING_APP : mkvmerge v20.0.0 ('I Am The Sun') 64-bit
_STATISTICS_WRITING_DATE_UTC : 2018-07-07 08:30:02
_STATISTICS_TAGS : BPS DURATION NUMBER_OF_FRAMES NUMBER_OF_BYTES
Video
ID : 1
Format : AVC
Format/Info : Advanced Video Codec
Format profile : High@L4.1
Format settings, CABAC : Yes
Format settings, ReFrames : 4 frames
Codec ID : V_MPEG4/ISO/AVC
Duration : 2h 7mn
Bit rate : 12.0 Mbps
Width : 1 920 pixels
Height : 800 pixels
Display aspect ratio : 2.40:1
Frame rate : 59.940 fps
Color space : YUV
Chroma subsampling : 4:2:0
Bit depth : 8 bits
Scan type : Progressive
Bits/(Pixel*Frame) : 0.130
Stream size : 10.4 GiB (90%)
Writing library : x264 core 146 r2538 121396c
Encoding settings : cabac=1 / ref=3 / deblock=1:-1:-1 / analyse=0x3:0x113 / me=umh / subme=9 / psy=1 / psy_rd=1.00:0.15 / mixed_ref=1 / me_range=32 / chroma_me=1 / trellis=2 / 8x8dct=1 / cqm=0 / deadzone=21,11 / fast_pskip=0 / chroma_qp_offset=-3 / threads=6 / lookahead_threads=1 / sliced_threads=0 / nr=0 / decimate=1 / interlaced=0 / bluray_compat=0 / constrained_intra=0 / bframes=3 / b_pyramid=2 / b_adapt=2 / b_bias=0 / direct=3 / weightb=1 / open_gop=0 / weightp=2 / keyint=250 / keyint_min=25 / scenecut=40 / intra_refresh=0 / rc_lookahead=40 / rc=2pass / mbtree=1 / bitrate=12000 / ratetol=1.0 / qcomp=0.60 / qpmin=0 / qpmax=69 / qpstep=4 / cplxblur=20.0 / qblur=0.5 / vbv_maxrate=14000 / vbv_bufsize=14000 / nal_hrd=none / filler=0 / ip_ratio=1.40 / aq=1:1.00
Language : English
Default : Yes
Forced : No
DURATION : 02:07:34.247000000
NUMBER_OF_FRAMES : 458796
NUMBER_OF_BYTES : 11449385755
_STATISTICS_WRITING_APP : mkvmerge v20.0.0 ('I Am The Sun') 64-bit
_STATISTICS_WRITING_DATE_UTC : 2018-07-07 08:30:02
_STATISTICS_TAGS : BPS DURATION NUMBER_OF_FRAMES NUMBER_OF_BYTES
Audio #1
ID : 2
Format : AC-3
Format/Info : Audio Coding 3
Mode extension : CM (complete main)
Codec ID : A_AC3
Duration : 2h 7mn
Bit rate mode : Constant
Bit rate : 448 Kbps
Channel(s) : 6 channels
Channel positions : Front: L C R, Side: L R, LFE
Sampling rate : 48.0 KHz
Bit depth : 16 bits
Compression mode : Lossy
Stream size : 409 MiB (3%)
Title : Дубляж
Language : Russian
Default : Yes
Forced : No
Audio #2
ID : 3
Format : AC-3
Format/Info : Audio Coding 3
Mode extension : CM (complete main)
Codec ID : A_AC3
Duration : 2h 7mn
Bit rate mode : Constant
Bit rate : 192 Kbps
Channel(s) : 2 channels
Channel positions : Front: L R
Sampling rate : 48.0 KHz
Bit depth : 16 bits
Compression mode : Lossy
Stream size : 175 MiB (1%)
Title : Дубляж
Language : Ukrainian
Default : No
Forced : No
Audio #3
ID : 4
Format : AC-3
Format/Info : Audio Coding 3
Mode extension : CM (complete main)
Codec ID : A_AC3
Duration : 2h 7mn
Bit rate mode : Constant
Bit rate : 448 Kbps
Channel(s) : 6 channels
Channel positions : Front: L C R, Side: L R, LFE
Sampling rate : 48.0 KHz
Bit depth : 16 bits
Compression mode : Lossy
Stream size : 409 MiB (3%)
Title : Original
Language : English
Default : No
Forced : No
Text #1
ID : 5
Format : UTF-8
Codec ID : S_TEXT/UTF8
Codec ID/Info : UTF-8 Plain Text
Title : forced
Language : Russian
Default : Yes
Forced : No
Text #2
ID : 6
Format : UTF-8
Codec ID : S_TEXT/UTF8
Codec ID/Info : UTF-8 Plain Text
Title : full
Language : Russian
Default : No
Forced : No
Text #3
ID : 7
Format : UTF-8
Codec ID : S_TEXT/UTF8
Codec ID/Info : UTF-8 Plain Text
Title : forced
Language : Ukrainian
Default : No
Forced : No
Text #4
ID : 8
Format : UTF-8
Codec ID : S_TEXT/UTF8
Codec ID/Info : UTF-8 Plain Text
Title : full
Language : English
Default : No
Forced : No
Text #5
ID : 9
Format : UTF-8
Codec ID : S_TEXT/UTF8
Codec ID/Info : UTF-8 Plain Text
Title : SDH
Language : English
Default : No
Forced : No
Text #6
ID : 10
Format : UTF-8
Codec ID : S_TEXT/UTF8
Codec ID/Info : UTF-8 Plain Text
Title : SDH-COLORED
Language : English
Default : No
Forced : No
Menu
00:00:00.000 : en:00:00:00.000
00:08:45.024 : en:00:08:45.024
00:19:31.170 : en:00:19:31.170
00:31:32.974 : en:00:31:32.974
00:41:42.542 : en:00:41:42.542
00:49:35.639 : en:00:49:35.639
00:58:29.631 : en:00:58:29.631
01:09:20.031 : en:01:09:20.031
01:19:07.201 : en:01:19:07.201
01:29:09.427 : en:01:29:09.427
01:36:08.513 : en:01:36:08.513
01:43:26.575 : en:01:43:26.575
01:52:58.772 : en:01:52:58.772
01:57:59.489 : en:01:57:59.489
[Профиль] [ЛС]
Показать сообщения:    

Текущее время: Сегодня 23:50

Часовой пояс: GMT



Вы не можете начинать темы
Вы не можете отвечать на сообщения
Вы не можете редактировать свои сообщения
Вы не можете удалять свои сообщения
Вы не можете голосовать в опросах
Вы не можете прикреплять файлы к сообщениям
Вы не можете скачивать файлы