Восхождение Юпитер / Jupiter Ascending (Энди Вачовски / Andy Wachowski, Лана Вачовски / Lana Wachowski) [2015, США, Фантастика, боевик, приключения, BDRip] Dub + AVO (Живов)

 
Автор Сообщение

TorrentFilm ®

Пол:

Стаж: 2 года

Сообщений: 7741



Награды: Нет

Торрент-статистика

Создавать темы 13-Сен-2015 00:09

[Цитировать]

Восхождение Юпитер / Jupiter Ascending- Год выпуска: 2015
Выпущено: США, Великобритания, Австралия / Warner Bros. Pictures
Жанр: фантастика, боевик, приключения
Продолжительность: 02:07:34
Перевод (1): Профессиональный (полное дублирование) DVD9 R5
Перевод (2): Авторский (одноголосый закадровый) Юрий Живов
Cубтитры: нет-Режиссер:
Энди Вачовски / Andy Wachowski, Лана Вачовски / Lana Wachowski-В ролях:
Ченнинг Татум (Caine Wise), Мила Кунис (Jupiter Jones), Шон Бин (Stinger Apini), Эдди Редмэйн (Balem Abrasax), Дуглас Бут (Titus Abrasax), Таппенс Мидлтон (Kalique Abrasax), Никки Амука-Бёрд (Diomika Tsing), Кристина Коул (Gemma Chatterjee), Николас А. Ньюман (Nesh), Рамон Тикарам (Phylo Percadium)-Описание:
Юпитер Джонс родилась под ночным небом, и все знаки предсказывали, что девочке предстоят великие свершения. Юпитер выросла и каждый день видит во сне звезды, но просыпается в жесткой реальности, где она работает уборщицей и моет туалеты. Личная жизнь Юпитер тоже оставляет желать лучшего, пока девушка не встречает Кейна. Кейн, бывший военный охотник, прибывает на Землю, чтобы отыскать Юпитер и раскрыть девушке ее истинное предназначение. Благодаря своим генетическим особенностям Юпитер становится претенденткой невероятного наследия, способного изменить равновесие во Вселенной.-Релиз групп | | IMDB | КиноПоиск | Сэмпл |-Качество: BDRip [BDRemux | 1080p | Кинозал + DVD9 R5 | Open-tor]
Формат: AVI
Видео: 720x304 (2.37:1), 23.976 fps, XviD build 73 ~1246 kbps avg, 0.24 bit/pixel
Аудио #1: 48 kHz, AC3 Dolby Digital, 3/2 (L,C,R,l,r) + LFE ch, ~384.00 kbps avg (DUB) DVD9 R5
Аудио #2: 48 kHz, AC3 Dolby Digital, 3/2 (L,C,R,l,r) + LFE ch, ~384.00 kbps avg (AVO) Юрий Живов отдельно
-

Скриншоты

MediaInfo

General
Complete name                            : D:\Voshozhdenie_Upiter_2015_BDRip_by_Dalemake.avi
Format                                   : AVI
Format/Info                              : Audio Video Interleave
File size                                : 1.46 GiB
Duration                                 : 2h 7mn
Overall bit rate                         : 1 640 Kbps
Writing application                      : VirtualDubMod 1.5.10.3 | www.virtualdub-fr.org || (build 2550/release)
Writing library                          : VirtualDubMod build 2550/release
Video
ID                                       : 0
Format                                   : MPEG-4 Visual
Format profile                           : Advanced Simple@L5
Format settings, BVOP                    : 1
Format settings, QPel                    : No
Format settings, GMC                     : No warppoints
Format settings, Matrix                  : Custom
Codec ID                                 : XVID
Codec ID/Hint                            : XviD
Duration                                 : 2h 7mn
Bit rate                                 : 1 246 Kbps
Width                                    : 720 pixels
Height                                   : 304 pixels
Display aspect ratio                     : 2.35:1
Frame rate                               : 23.976 fps
Color space                              : YUV
Chroma subsampling                       : 4:2:0
Bit depth                                : 8 bits
Scan type                                : Progressive
Compression mode                         : Lossy
Bits/(Pixel*Frame)                       : 0.237
Stream size                              : 1.11 GiB (76%)
Writing library                          : XviD 73
Audio
ID                                       : 1
Format                                   : AC-3
Format/Info                              : Audio Coding 3
Mode extension                           : CM (complete main)
Format settings, Endianness              : Big
Codec ID                                 : 2000
Duration                                 : 2h 7mn
Bit rate mode                            : Constant
Bit rate                                 : 384 Kbps
Channel(s)                               : 6 channels
Channel positions                        : Front: L C R, Side: L R, LFE
Sampling rate                            : 48.0 KHz
Bit depth                                : 16 bits
Compression mode                         : Lossy
Stream size                              : 350 MiB (23%)
Alignment                                : Split accross interleaves
Interleave, duration                     : 42 ms (1.00 video frame)
Interleave, preload duration             : 500 ms

Сравнение

http://torrentfilm.net/forum/viewtopic.php?t=5066275
http://screenshotcomparison.com/comparison/142523
+ Звук 6 каналов и дорожка Живова

-
За перевод Ю. Живова большое спасибо пользователям форума hdtracker:
Gross1978; GaryH; kondratzx; Tagansky; KR0Tik; Schmulke; rammzezreautoring; ZeRoNe; karantin66; _MyxAmoP_; patamuf; ultrajeka; marlboro-man; vovyanskiy; Role; эвоки; ylnian; vadamk; Gangster; WUSA
-
[Профиль] [ЛС]
Показать сообщения:    

Текущее время: Сегодня 04:17

Часовой пояс: GMT



Вы не можете начинать темы
Вы не можете отвечать на сообщения
Вы не можете редактировать свои сообщения
Вы не можете удалять свои сообщения
Вы не можете голосовать в опросах
Вы не можете прикреплять файлы к сообщениям
Вы не можете скачивать файлы