Восхождение Юпитер / Jupiter Ascending (Энди Вачовски / Andy Wachowski, Лана Вачовски / Lana Wachowski) [2015, США, фантастика, боевик, приключения, BDRip] Dub

 
Автор Сообщение

TorrentFilm ®

Пол:

Стаж: 2 года

Сообщений: 7741



Награды: Нет

Торрент-статистика

Создавать темы 12-Май-2015 00:04

[Цитировать]

Восхождение Юпитер / Jupiter Ascending

«Expand your universe»
-Страна: США
Студии: Aaron Sims Company, Village Roadshow Pictures, Warner Bros. Pictures
Жанр: фантастика, боевик, приключения
Год выпуска: 2015
Продолжительность: 02:07:34
Перевод: Профессиональный (дублированный) - | Лицензия - BD CEE |
Cубтитры: нет
Оригинальная аудиодорожка: нет-Режиссер: Энди Вачовски / Andy Wachowski, Лана Вачовски / Lana Wachowski-В ролях: Ченнинг Татум, Мила Кунис, Шон Бин, Эдди Редмэйн, Дуглас Бут, Таппенс Мидлтон, Никки Амука-Бёрд, Кристина Коул, Николас А. Ньюман, Рамон Тикарам...-Описание: Юпитер Джонс родилась под ночным небом, и все знаки предсказывали, что девочке предстоят великие свершения. Юпитер выросла и каждый день видит во сне звезды, но просыпается в жесткой реальности, где она работает уборщицей и моет туалеты. Личная жизнь Юпитер тоже оставляет желать лучшего, пока девушка не встречает Кейна. Кейн, бывший военный охотник, прибывает на Землю, чтобы отыскать Юпитер и раскрыть девушке ее истинное предназначение. Благодаря своим генетическим особенностям Юпитер становится претенденткой невероятного наследия, способного изменить равновесие во Вселенной.- -Качество видео: BDRip | Blu-Ray CEE - HDClub |
Формат видео: AVI
Видео: 720x304, 23.976 fps, XviD build 73 ~1444 kbps avg, 0.273 bit/pixel
Аудио: 48 kHz, AC3 Dolby Digital, 2/0 (L,R) ch, ~192 kbps
-

Дополнительно о фильме:

Производство, студия дубляжа, прокат:

Знаете ли вы, что...

MediaInfo

General
Complete name : Jupiter Ascending.BDRip.By_Flash.avi
Format : AVI
Format/Info : Audio Video Interleave
File size : 1.45 GiB
Duration : 2h 7mn
Overall bit rate : 1 624 Kbps
Writing application : VirtualDubMod 1.5.10.2 (build 2540/release)
Writing library : VirtualDubMod build 2540/release
Video
ID : 0
Format : MPEG-4 Visual
Format profile : Advanced Simple@L5
Format settings, BVOP : 1
Format settings, QPel : No
Format settings, GMC : No warppoints
Format settings, Matrix : Custom
Codec ID : XVID
Codec ID/Hint : XviD
Duration : 2h 7mn
Bit rate : 1 444 Kbps
Width : 720 pixels
Height : 304 pixels
Display aspect ratio : 2.35:1
Frame rate : 23.976 fps
Color space : YUV
Chroma subsampling : 4:2:0
Bit depth : 8 bits
Scan type : Progressive
Compression mode : Lossy
Bits/(Pixel*Frame) : 0.273
Stream size : 1.27 GiB (88%)
Writing library : XviD 73
Audio
ID : 1
Format : AC-3
Format/Info : Audio Coding 3
Mode extension : CM (complete main)
Format settings, Endianness : Big
Codec ID : 2000
Duration : 2h 7mn
Bit rate mode : Constant
Bit rate : 192 Kbps
Channel(s) : 2 channels
Channel positions : Front: L R
Sampling rate : 48.0 KHz
Bit depth : 16 bits
Compression mode : Lossy
Stream size : 175 MiB (12%)
Alignment : Aligned on interleaves
Interleave, duration : 42 ms (1.00 video frame)
Interleave, preload duration : 512 ms

Скриншот c названием фильма

Скриншоты

[Профиль] [ЛС]
Показать сообщения:    

Текущее время: Сегодня 03:22

Часовой пояс: GMT



Вы не можете начинать темы
Вы не можете отвечать на сообщения
Вы не можете редактировать свои сообщения
Вы не можете удалять свои сообщения
Вы не можете голосовать в опросах
Вы не можете прикреплять файлы к сообщениям
Вы не можете скачивать файлы