Восхождение Юпитер / Jupiter Ascending (2015) BDRip [720p]

 
Автор Сообщение

достали все ®

Пол:

Стаж: 1 год 8 месяцев

Сообщений: 6611



Награды: 12 (Подробнее)

За внесенный вклад в развитие сайта (Количество: 1) Top Releaser 4 (Количество: 1) Mega Releaser 2 (Количество: 1)
Торрент-статистика

Создавать темы 06-Май-2015 04:31

[Цитировать]

-Восхождение Юпитер / Jupiter Ascending (2015) BDRip [H.264/720p]«Expand your universe»- Производство: USA, U.K. / Dune Entertainment, Village Roadshow Pictures, Warner Bros.
Жанр: фантастика, боевик, приключения
Режиссер: Энди Вачовски, Лана Вачовски
Продюссер: Грант Хилл, Энди Вачовски, Лана Вачовски
Актеры: Ченнинг Татум, Мила Кунис, Шон Бин, Эдди Редмэйн, Дуглас Бут, Таппенс Мидлтон, Никки Амука-Бёрд, Кристина Коул, Николас А. Ньюман, Рамон Тикарам, Эрион Бакаре, Мария Дойл Кеннеди, Фрог Стоун, Дэвид Аджала, Ду На Пэ, Гугу Мбата-Роу, Эдвард Хогг, Тим Пиготт-Смит, Джеймс Д`Арси, Джереми Свифт
Описание:
Юпитер Джонс родилась под ночным небом, и все знаки предсказывали, что девочке предстоят великие свершения. Юпитер выросла и каждый день видит во сне звезды, но просыпается в жесткой реальности, где она работает уборщицей и моет туалеты. Личная жизнь Юпитер тоже оставляет желать лучшего, пока девушка не встречает Кейна. Кейн, бывший военный охотник, прибывает на Землю, чтобы отыскать Юпитер и раскрыть девушке ее истинное предназначение. Благодаря своим генетическим особенностям Юпитер становится претенденткой невероятного наследия, способного изменить равновесие во Вселенной...-
Рейтинг MPAA: PG-13 - Детям до 13 лет просмотр не желателен
Дата мировой премьеры: 27 января 2015
Дата российской премьеры: 5 февраля 2015
Дата выхода Blu-Ray релиза: 14 мая 2015, «CP Дистрибуция»
Дата выхода DVD релиза: 14 мая 2015, «CP Дистрибуция»-Продолжительность: 02:07:34
Качество: BDRip (720p) (HDAccess)
Перевод: профессиональный (полное дублирование) (iTunes Russia)
Вид субтитров: вшитые отключаемые
Язык субтитров: русский, украинский, английский
Видео: MPEG-4 AVC/H.264, 1280 x 534 (2,40:1), 4 829 kbps, 23.976 fps, 0.295 b/px
Аудио # 1: АС3, 6 ch, 384 kbps, 48 000 Hz - дублированный - iTunes Russia
Аудио # 2: DTS, 6 ch, 1510 kbps, 48 000 Hz - оригинальный-

MediaInfo

Общее
Уникальный идентификатор                 : 173651541610264279057162061627036096445 (0x82A41204EC53FAE99711814CECD957BD)
Полное имя                               : F:\Jupiter.Ascending.2015.720p.BluRay.DTS.x264-HDAccess.mkv
Формат                                   : Matroska
Версия формата                           : Version 4 / Version 2
Размер файла                             : 6,11 Гбайт
Продолжительность                        : 2 ч. 7 м.
Общий поток                              : 6859 Кбит/сек
Дата кодирования                         : UTC 2015-05-05 15:45:24
Программа кодирования                    : mkvmerge v7.3.0 ('Nouages') 64bit built on Oct 22 2014 18:53:34
Библиотека кодирования                   : libebml v1.3.0 + libmatroska v1.4.1
Видео
Идентификатор                            : 1
Формат                                   : AVC
Формат/Информация                        : Advanced Video Codec
Профиль формата                          : [url=mailto:High@L4.1]High@L4.1[/url]
Параметр CABAC формата                   : Да
Параметр ReFrames формата                : 12 кадров
Идентификатор кодека                     : V_MPEG4/ISO/AVC
Продолжительность                        : 2 ч. 7 м.
Битрейт                                  : 4829 Кбит/сек
Ширина                                   : 1280 пикселей
Высота                                   : 534 пикселя
Соотношение сторон                       : 2,40:1
Режим частоты кадров                     : Постоянный
Частота кадров                           : 23,976 кадра/сек
Цветовое пространство                    : YUV
Субдискретизация насыщенности            : 4:2:0
Битовая глубина                          : 8 бит
Тип развёртки                            : Прогрессивная
Бит/(Пиксели*Кадры)                      : 0.295
Размер потока                            : 4,30 Гбайт (70%)
Библиотека кодирования                   : x264 core 142 r2431+42 c69a006 tMod [8-bit@all X86_64]
Настройки программы                      : cabac=1 / ref=12 / deblock=1:-3:-3 / analyse=0x3:0x133 / me=umh / subme=11 / psy=1 / fade_compensate=0.00 / psy_rd=1.05:0.00 / mixed_ref=1 / me_range=24 / chroma_me=1 / trellis=2 / 8x8dct=1 / cqm=0 / deadzone=21,11 / fast_pskip=0 / chroma_qp_offset=-2 / threads=24 / lookahead_threads=4 / sliced_threads=0 / nr=0 / decimate=0 / interlaced=0 / bluray_compat=0 / constrained_intra=0 / fgo=0 / bframes=8 / b_pyramid=2 / b_adapt=2 / b_bias=0 / direct=3 / weightb=1 / open_gop=0 / weightp=2 / keyint=250 / keyint_min=23 / scenecut=40 / intra_refresh=0 / rc=crf / mbtree=0 / crf=16.0000 / qcomp=0.70 / qpmin=0:0:0 / qpmax=69:69:69 / qpstep=4 / ip_ratio=1.30 / pb_ratio=1.20 / aq=3:0.80 / aq-sensitivity=10.00 / aq-factor=1.00:1.00:1.00 / aq2=0 / aq3=0
Язык                                     : English
Default                                  : Да
Forced                                   : Нет
Аудио #1
Идентификатор                            : 2
Формат                                   : AC-3
Формат/Информация                        : Audio Coding 3
Расширение режима                        : CM (complete main)
Параметр Endianness формата              : Big
Идентификатор кодека                     : A_AC3
Продолжительность                        : 2 ч. 7 м.
Вид битрейта                             : Постоянный
Битрейт                                  : 384 Кбит/сек
Каналы                                   : 6 каналов
Расположение каналов                     : Front: L C R, Side: L R, LFE
Частота                                  : 48,0 КГц
Битовая глубина                          : 16 бит
Метод сжатия                             : С потерями
Размер потока                            : 350 Мбайт (6%)
Язык                                     : Russian
Default                                  : Да
Forced                                   : Нет
Аудио #2
Идентификатор                            : 3
Формат                                   : DTS
Формат/Информация                        : Digital Theater Systems
Режим                                    : 16
Параметр Endianness формата              : Big
Идентификатор кодека                     : A_DTS
Продолжительность                        : 2 ч. 7 м.
Вид битрейта                             : Постоянный
Битрейт                                  : 1510 Кбит/сек
Каналы                                   : 6 каналов
Расположение каналов                     : Front: L C R, Side: L R, LFE
Частота                                  : 48,0 КГц
Битовая глубина                          : 24 бит
Метод сжатия                             : С потерями
Размер потока                            : 1,35 Гбайт (22%)
Язык                                     : English
Default                                  : Нет
Forced                                   : Нет
Текст #1
Идентификатор                            : 4
Формат                                   : UTF-8
Идентификатор кодека                     : S_TEXT/UTF8
Идентификатор кодека/Информация          : UTF-8 Plain Text
Язык                                     : Russian
Default                                  : Да
Forced                                   : Нет
Текст #2
Идентификатор                            : 5
Формат                                   : UTF-8
Идентификатор кодека                     : S_TEXT/UTF8
Идентификатор кодека/Информация          : UTF-8 Plain Text
Язык                                     : Russian
Default                                  : Нет
Forced                                   : Нет
Текст #3
Идентификатор                            : 6
Формат                                   : UTF-8
Идентификатор кодека                     : S_TEXT/UTF8
Идентификатор кодека/Информация          : UTF-8 Plain Text
Язык                                     : Ukrainian
Default                                  : Нет
Forced                                   : Нет
Текст #4
Идентификатор                            : 7
Формат                                   : UTF-8
Идентификатор кодека                     : S_TEXT/UTF8
Идентификатор кодека/Информация          : UTF-8 Plain Text
Язык                                     : English
Default                                  : Нет
Forced                                   : Нет
Текст #5
Идентификатор                            : 8
Формат                                   : UTF-8
Идентификатор кодека                     : S_TEXT/UTF8
Идентификатор кодека/Информация          : UTF-8 Plain Text
Заголовок                                : SDH
Язык                                     : English
Default                                  : Нет
Forced                                   : Нет
Меню
00:00:00.000                             : en:00:00:00.000
00:08:45.024                             : en:00:08:45.024
00:19:31.170                             : en:00:19:31.170
00:31:32.974                             : en:00:31:32.974
00:41:42.542                             : en:00:41:42.542
00:49:35.639                             : en:00:49:35.639
00:58:29.631                             : en:00:58:29.631
01:09:20.031                             : en:01:09:20.031
01:19:07.201                             : en:01:19:07.201
01:29:09.427                             : en:01:29:09.427
01:36:08.513                             : en:01:36:08.513
01:43:26.575                             : en:01:43:26.575
01:52:58.772                             : en:01:52:58.772
01:57:59.489                             : en:01:57:59.489

Интересные факты

*** Это первый фильм Энди и Ланы Вачовски с рейтингом «PG-13».
*** Ондра Зелари рассматривался на роль в этом фильме.
*** Изначально на главную женскую роль претендовала Натали Портман, но позднее она выбыла из проекта. Также перед Милой Кунис на эту роль пробовалась Руни Мара.
*** Джозеф Гордон-Левитт рассматривался на роль в этом фильме.
*** Первый фильм Энди и Ланы Вачовски в 3D-формате.
*** Во время съемок съемочная группа собрала установку из шести камер (Panocam), которую разместили на вертолете. Охватываемый установкой угол составил почти 180 градусов, это позволило на стадии пост-продакшна объединить перекрывающиеся кадры и создать ощущение, что камера движется независимо от фактического пути вертолета.
*** Во время подготовки к съемкам Ченнингу Татуму приходилось носить специальный загубник, чтобы изменить форму нижней челюсти. Это приспособление мешало ему закрывать рот и вызывало затруднения в те моменты, когда ему нужно было говорить.
*** Первоначально выход фильма был намечен на 20 июня 2014 года, но студия решила перенести дату премьеры на февраль 2015 года, чтобы уделить больше времени процессу пост-продакшна.
*** По словам режиссеров, объем сценария фильма составляет более 600 страниц.
*** На 40 минуте Влад играет в игру Dark Souls 2.
-Скриншоты:
-
[Профиль] [ЛС]
Показать сообщения:    

Текущее время: Сегодня 16:55

Часовой пояс: GMT



Вы не можете начинать темы
Вы не можете отвечать на сообщения
Вы не можете редактировать свои сообщения
Вы не можете удалять свои сообщения
Вы не можете голосовать в опросах
Вы не можете прикреплять файлы к сообщениям
Вы не можете скачивать файлы