Восхождение животных: Триумф позвоночных / BBC. Rise of Animals: Triumph of the Vertebrates (Дэвид Ли / David Lee) [2013, документальный, BDRip 1080p]

 
Автор Сообщение

TorrentFilm ®

Пол:

Стаж: 2 года

Сообщений: 7741



Награды: Нет

Торрент-статистика

Создавать темы 22-Дек-2014 02:00

[Цитировать]

Восхождение животных: Триумф позвоночных / Rise of Animals: Triumph of the Vertebrates Год выпуска: 2013
Страна: Великобритания
Студия: BBC, Atlantic Productions
Жанр: документальный
Продолжительность: 00:59:08 (полная версия)
Перевод: Одноголосый закадровый - Ю. Онищенко
Субтитры: русские (Ю. Онищенко), английские
Режиссер: Дэвид Ли / David Lee
Описание: Дэвид Аттенборо отправляется в эпическое путешествие длиной 500 миллионов лет и исследует невероятный скачок в развитии позвоночных, породивший самых крупных, быстрых и умных существ, когда-либо живших на планете.
1-я серия. Из морей в небеса / From the Seas to the Skies
С помощью новых открытий палеонтологии Дэвид Аттенборо исследует удивительную главу истории развития жизни на Земле - возникновение позвоночных.
2-я серия. Эра млекопитающих / Dawn of the Mammals (готовится)
Эта серия посвящена истории млекопитающих, от возникновения первых видов до стремительного роста их разнообразия и господства на планете.
Доп. информация: За перевод спасибо Ю. Онищенко (Logos71).
Тип релиза: BDRip 1080p
Контейнер: MKV
Видео: MPEG-4 AVC, 1920x1080 (16:9), 25.000 fps, 8968 Kbps
Аудио: Russian AC3, 2 ch, 48KHz, 320 Kbps
Аудио 2: English AC3, 2 ch, 48KHz, 640 Kbps
Формат субтитров: softsub (SRT)
Навигация по главам: есть
Сэмпл Другие фильмы BBC в HD

MediaInfo

General
Unique ID : 201421461985487944616611005815310298684 (0x97885CCD53324BC2917370BA26E4AE3C)
Format : Matroska
Format version : Version 4 / Version 2
File size : 4.10 GiB
Duration : 59mn 8s
Overall bit rate : 9 930 Kbps
Encoded date : UTC 2014-12-09 12:46:22
Writing application : mkvmerge v7.3.0 ('Nouages') 64bit built on Oct 22 2014 18:53:34
Writing library : libebml v1.3.0 + libmatroska v1.4.1
Attachements : cover.jpg
_STATISTICS_WRITING_APP : mkvmerge v7.3.0 ('Nouages') 64bit built on Oct 22 2014 18:53:34
_STATISTICS_WRITING_DATE_UTC : 2014-12-09 12:46:22
_STATISTICS_TAGS : BPS DURATION NUMBER_OF_FRAMES NUMBER_OF_BYTES
DURATION : 00:59:02.640000000
NUMBER_OF_FRAMES : 759
NUMBER_OF_BYTES : 61877
Video
ID : 1
Format : AVC
Format/Info : Advanced Video Codec
Format profile : High@L4.1
Format settings, CABAC : Yes
Format settings, ReFrames : 4 frames
Codec ID : V_MPEG4/ISO/AVC
Duration : 59mn 8s
Bit rate : 8 968 Kbps
Width : 1 920 pixels
Height : 1 080 pixels
Display aspect ratio : 16:9
Frame rate mode : Constant
Frame rate : 25.000 fps
Color space : YUV
Chroma subsampling : 4:2:0
Bit depth : 8 bits
Scan type : Progressive
Bits/(Pixel*Frame) : 0.173
Stream size : 3.62 GiB (88%)
Writing library : x264 core 138 r2358 9e941d1
Encoding settings : cabac=1 / ref=4 / deblock=1:-2:-2 / analyse=0x3:0x113 / me=umh / subme=8 / psy=1 / psy_rd=1.00:0.00 / mixed_ref=1 / me_range=16 / chroma_me=1 / trellis=1 / 8x8dct=1 / cqm=0 / deadzone=21,11 / fast_pskip=1 / chroma_qp_offset=-2 / threads=12 / lookahead_threads=2 / sliced_threads=0 / nr=0 / decimate=1 / interlaced=0 / bluray_compat=0 / constrained_intra=0 / bframes=3 / b_pyramid=2 / b_adapt=2 / b_bias=0 / direct=3 / weightb=1 / open_gop=0 / weightp=2 / keyint=250 / keyint_min=25 / scenecut=40 / intra_refresh=0 / rc_lookahead=50 / rc=2pass / mbtree=1 / bitrate=8968 / ratetol=1.0 / qcomp=0.60 / qpmin=0 / qpmax=69 / qpstep=4 / cplxblur=20.0 / qblur=0.5 / ip_ratio=1.40 / aq=1:1.00
Language : English
Default : Yes
Forced : No
_STATISTICS_WRITING_APP : mkvmerge v7.3.0 ('Nouages') 64bit built on Oct 22 2014 18:53:34
_STATISTICS_WRITING_DATE_UTC : 2014-12-09 12:46:22
_STATISTICS_TAGS : BPS DURATION NUMBER_OF_FRAMES NUMBER_OF_BYTES
DURATION : 00:59:08.720000000
NUMBER_OF_FRAMES : 88718
NUMBER_OF_BYTES : 3977696154
Audio #1
ID : 2
Format : AC-3
Format/Info : Audio Coding 3
Mode extension : CM (complete main)
Format settings, Endianness : Big
Codec ID : A_AC3
Duration : 59mn 8s
Bit rate mode : Constant
Bit rate : 320 Kbps
Channel(s) : 2 channels
Channel positions : Front: L R
Sampling rate : 48.0 KHz
Bit depth : 16 bits
Compression mode : Lossy
Stream size : 135 MiB (3%)
Title : Ю. Онищенко
Language : Russian
Default : Yes
Forced : No
Audio #2
ID : 3
Format : AC-3
Format/Info : Audio Coding 3
Mode extension : CM (complete main)
Format settings, Endianness : Big
Codec ID : A_AC3
Duration : 59mn 8s
Bit rate mode : Constant
Bit rate : 640 Kbps
Channel(s) : 2 channels
Channel positions : Front: L R
Sampling rate : 48.0 KHz
Bit depth : 16 bits
Compression mode : Lossy
Stream size : 271 MiB (6%)
Language : English
Default : No
Forced : No
Text #1
ID : 4
Format : UTF-8
Codec ID : S_TEXT/UTF8
Codec ID/Info : UTF-8 Plain Text
Title : Ю. Онищенко
Language : Russian
Default : No
Forced : No
Text #2
ID : 5
Format : UTF-8
Codec ID : S_TEXT/UTF8
Codec ID/Info : UTF-8 Plain Text
Language : English
Default : No
Forced : No
Menu
00:00:00.000 : en:00:00:00.000
00:10:39.400 : en:00:10:39.400
00:21:52.400 : en:00:21:52.400
00:28:32.000 : en:00:28:32.000
00:39:06.400 : en:00:39:06.400
00:46:13.720 : en:00:46:13.720

Скриншоты

[Профиль] [ЛС]
Показать сообщения:    

Текущее время: Сегодня 07:13

Часовой пояс: GMT



Вы не можете начинать темы
Вы не можете отвечать на сообщения
Вы не можете редактировать свои сообщения
Вы не можете удалять свои сообщения
Вы не можете голосовать в опросах
Вы не можете прикреплять файлы к сообщениям
Вы не можете скачивать файлы