Восход / Rise (Мэк Линдон / Mack Lindon) [2015, Австралия, Драма, криминал, WEB-DLRip] DVO (RAIM & NASTR)

 
Автор Сообщение

TorrentFilm ®

Пол:

Стаж: 2 года

Сообщений: 7741



Награды: Нет

Торрент-статистика

Создавать темы 16-Фев-2015 00:01

[Цитировать]

Восход / Rise
Страна: Австралия
Жанр: Драма, криминал
Год выпуска: 2015
Продолжительность: 01:42:41
Перевод: Любительский (двухголосый, закадровый) [RAIM & NASTR]
Cубтитры: нет
Режиссер: Мэк Линдон / Mack Lindon
В ролях: Джессика Грин, Стефани Мэй, Мартин Сакс, Рис Милн, Tade Adepoyibi, Камерон Колфилд, Джемма Лорелл, Джеймс Кирни, Курт Стоуэрс, Рози Кеог
Описание: История, основанная на реальных событиях, о молодом медбрате, ошибочно осужденном в изнасиловании. Лишенный своей карьеры и свободы, Уилл вынужден выживать в тюрьме строгого режима. Сюжет фильма развивается вокруг маловероятной дружбы с закаленным и опасным преступником Джимми и правовой битвы известного адвоката, который должен вернуть Уиллу его честное имя, найдя доказательства его невиновности..
Дополнительная информация: Фильм основан на реальных событиях
Сэмпл: http://multi-up.com/1033163
Качество видео: WEB-DLRip
Формат видео: AVI
Видео: 688x288 (2.39:1), 24.000 fps, XviD build 73 ~879 kbps avg, 0.19 bit/pixel
Аудио: 48 kHz, MPEG Layer 3, 2 ch, ~128.00 kbps avg

MediaInfo

Формат : AVI
Формат/Информация : Audio Video Interleave
Размер файла : 747 Мбайт
Продолжительность : 1 ч. 42 м.
Общий поток : 1017 Кбит/сек
Программа кодирования : VirtualDubMod 1.5.10.3 | www.virtualdub-fr.org || (build 2550/release)
Библиотека кодирования : VirtualDubMod build 2550/release
Видео
Идентификатор : 0
Формат : MPEG-4 Visual
Профиль формата : Advanced Simple@L5
Параметр BVOP формата : 2
Параметр QPel формата : Нет
Параметр GMC формата : Без точки перехода
Параметр матрицы формата : Выборочная
Идентификатор кодека : XVID
Идентификатор кодека/Подсказка : XviD
Продолжительность : 1 ч. 42 м.
Битрейт : 879 Кбит/сек
Ширина : 688 пикселей
Высота : 288 пикселей
Соотношение сторон : 2,40:1
Частота кадров : 24,000 кадра/сек
Цветовое пространство : YUV
Субдискретизация насыщенности : 4:2:0
Битовая глубина : 8 бит
Тип развёртки : Прогрессивная
Метод сжатия : С потерями
Бит/(Пиксели*Кадры) : 0.185
Размер потока : 646 Мбайт (86%)
Библиотека кодирования : XviD 73
Аудио
Идентификатор : 1
Формат : MPEG Audio
Версия формата : Version 1
Профиль формата : Layer 3
Идентификатор кодека : 55
Идентификатор кодека/Подсказка : MP3
Продолжительность : 1 ч. 42 м.
Вид битрейта : Постоянный
Битрейт : 128 Кбит/сек
Каналы : 2 канала
Частота : 48,0 КГц
Метод сжатия : С потерями
Размер потока : 94,0 Мбайт (13%)
Выравнивание : Соединение по промежуткам
Продолжительность промежутка : 42 мс. (1,00 видеокадр)
Время предзагрузки промежутка : 504 мс.
Библиотека кодирования : LAME3.99r
Настройки программы : -m s -V 4 -q 2 -lowpass 17 -b 128

Скриншоты

[Профиль] [ЛС]
Кто просматривает тему:

Форум Тема Автор Размер
BBC BBC: Восхождение женщины / The Ascent of Woman [серии 1-4 из 4] (Hugo Macgregor) [2015 г., Документальный, история, археология, исследования, HDTVRip 720p] skorpionN 6.28 GB
Action S.T.A.L.K.E.R.: Shadow of Chernobyl - Конец Света 2: Последний Восход (1.3) (2015) [Repack, RUS] by SeregA-Lus (обновлен от 01.10.2015) Garik014 3.2 GB
Action X-Men Legends II: Rise of Apocalypse / X-Men Legends 2: Восход Апокалипсиса [RePack by Alex Trin] [RUS / ENG] (2005) (1.0) TorrentFilm 1.39 GB
Кино СССР Адъютант его превосходительства [01-05 из 05] (1969) SATRip-AVC sergej644 6.16 GB
Фантастика и фэнтези Александра Лисина | Восхождение (2014) [MP3] sergej644 972 MB
Разная литература Анатолий Букреев, Г. Вестон ДеУолт - Эверест. Смертельное восхождение (2015) FB2 достали все 10 MB
Документальные HD Восход Победы (5 серий из 6) [2013, исторический, HDTV 1080i] TorrentFilm 12.01 GB
Документальные HD Восход Победы: Советский Блицкриг в Европе (Юрий Линкевич) [2015, Документальный, HDTV 1080i] TorrentFilm 2.95 GB
Показать сообщения:    

Текущее время: Сегодня 14:28

Часовой пояс: GMT



Вы не можете начинать темы
Вы не можете отвечать на сообщения
Вы не можете редактировать свои сообщения
Вы не можете удалять свои сообщения
Вы не можете голосовать в опросах
Вы не можете прикреплять файлы к сообщениям
Вы не можете скачивать файлы