Восход тёмной луны / Dark Moon Rising (2015) BDRip 1080p от NovaLan | L1

 
Автор Сообщение

BOSS ®

Пол:

Стаж: 2 года 1 месяц

Сообщений: 3746

Откуда: ODESSA



Награды: 20 (Подробнее)

За внесенный вклад в развитие сайта (Количество: 1) Mega Seeder 3 (Количество: 1) Top Seeder 3 (Количество: 1)
Торрент-статистика

Создавать темы 27-Дек-2015 20:12

[Цитировать]

Название: Восход тёмной луны
Оригинальное название: Dark Moon Rising
Год выпуска: 2015
Жанр: Фэнтези
Режиссер: Джастин Прайс
В ролях: Стаси Эспер, Эрик Робертс, Линда Ку, Билли Блэнкс, Джастин Прайс, Камерон Уайт, Лиза Мэй, Мэттью Симмонс, Джаред Оллман, Эмили Бедфорд
О фильме:
Группа оборотней спускается в небольшой город в поисках девушки, которая может родиться один раз в 2000 лет. Она держит ключ к их выживанию и все умрут, кто стоит на их пути.

Страна: США, Pikchure Zero Entertainment
Продолжительность: 01:25:34
Перевод: Любительский одноголосый (Хихикающий доктор)
Перевод фильма: Enigma
Кодек: H.264
Качество: BDRip 1080p
Видео: MPEG-4 AVC, 9577 Кбит/с, 1920x800, 23.976 кадр/с
Звук: Русский (AC3, 6 ch, 640 Кбит/с), (DTS, 6 ch, 1510 Кбит/с), английский (DTS, 6 ch, 1510 Кбит/с)
Субтитры: Английские
Релиз группа NovaLan
Автор релиза Sergei7721

Инфо-файл

Полное имя : E:Dark.Moon.Rising.2015.x264.BDRip.1080p.NovaLan.mkv
Формат : Matroska
Версия формата : Version 4 / Version 2
Размер файла : 7,91 Гбайт
Продолжительность : 1 ч. 25 м.
Общий поток : 13,2 Мбит/сек
Название фильма : Dark Moon Rising 2015 - NovaLan
Дата кодирования : UTC 2015-12-26 17:13:14
Программа кодирования : mkvmerge v8.3.0 ('Over the Horizon') 64bit
Библиотека кодирования : libebml v1.3.1 + libmatroska v1.4.2
DURATION : 01:18:30.363000000
NUMBER_OF_FRAMES : 682
NUMBER_OF_BYTES : 21191
_STATISTICS_WRITING_APP : mkvmerge v8.3.0 ('Over the Horizon') 64bit
_STATISTICS_WRITING_DATE_UTC : 2015-12-26 17:13:14
_STATISTICS_TAGS : BPS DURATION NUMBER_OF_FRAMES NUMBER_OF_BYTES
Видео
Идентификатор : 1
Формат : AVC
Формат/Информация : Advanced Video Codec
Профиль формата : High@L4.1
Параметр CABAC формата : Да
Параметр ReFrames формата : 4 кадра
Идентификатор кодека : V_MPEG4/ISO/AVC
Продолжительность : 1 ч. 25 м.
Битрейт : 9577 Кбит/сек
Ширина : 1920 пикселей
Высота : 800 пикселей
Соотношение сторон : 2,40:1
Частота кадров : 23,976 кадра/сек
Цветовое пространство : YUV
Субдискретизация насыщенности : 4:2:0
Битовая глубина : 8 бит
Тип развёртки : Прогрессивная
Бит/(Пиксели*Кадры) : 0.260
Размер потока : 5,56 Гбайт (70%)
Заголовок : Sergei7721
Библиотека кодирования : x264 core 146 r2538 121396c
Настройки программы : cabac=1 / ref=4 / deblock=1:-1:-1 / analyse=0x3:0x113 / me=umh / subme=11 / psy=1 / psy_rd=1.00:0.20 / mixed_ref=1 / me_range=24 / chroma_me=1 / trellis=2 / 8x8dct=1 / cqm=0 / deadzone=21,11 / fast_pskip=0 / chroma_qp_offset=-3 / threads=12 / lookahead_threads=1 / sliced_threads=0 / nr=0 / decimate=0 / interlaced=0 / bluray_compat=0 / constrained_intra=0 / bframes=6 / b_pyramid=2 / b_adapt=2 / b_bias=0 / direct=3 / weightb=1 / open_gop=0 / weightp=2 / keyint=240 / keyint_min=23 / scenecut=40 / intra_refresh=0 / rc_lookahead=40 / rc=2pass / mbtree=0 / bitrate=9577 / ratetol=1.0 / qcomp=0.60 / qpmin=0 / qpmax=69 / qpstep=4 / cplxblur=20.0 / qblur=0.5 / vbv_maxrate=50000 / vbv_bufsize=62500 / nal_hrd=none / filler=0 / ip_ratio=1.40 / pb_ratio=1.30 / aq=1:1.00
Default : Да
Forced : Нет
DURATION : 01:25:34.296000000
NUMBER_OF_FRAMES : 123100
NUMBER_OF_BYTES : 6141638086
_STATISTICS_WRITING_APP : mkvmerge v8.3.0 ('Over the Horizon') 64bit
_STATISTICS_WRITING_DATE_UTC : 2015-12-26 17:13:14
_STATISTICS_TAGS : BPS DURATION NUMBER_OF_FRAMES NUMBER_OF_BYTES
Аудио #1
Идентификатор : 2
Формат : AC-3
Формат/Информация : Audio Coding 3
Расширение режима : CM (complete main)
Параметр Endianness формата : Big
Идентификатор кодека : A_AC3
Продолжительность : 1 ч. 25 м.
Вид битрейта : Постоянный
Битрейт : 640 Кбит/сек
Каналы : 6 каналов
Расположение каналов : Front: L C R, Side: L R, LFE
Частота : 48,0 КГц
Битовая глубина : 16 бит
Метод сжатия : С потерями
Размер потока : 392 Мбайт (5%)
Язык : Russian
Default : Да
Forced : Нет
Аудио #2
Идентификатор : 3
Формат : DTS
Формат/Информация : Digital Theater Systems
Идентификатор кодека : A_DTS
Продолжительность : 1 ч. 25 м.
Вид битрейта : Постоянный
Битрейт : 1510 Кбит/сек
Каналы : 6 каналов
Расположение каналов : Front: L C R, Side: L R, LFE
Частота : 48,0 КГц
Битовая глубина : 24 бит
Метод сжатия : С потерями
Размер потока : 924 Мбайт (11%)
Язык : Russian
Default : Нет
Forced : Нет
Аудио #3
Идентификатор : 4
Формат : DTS
Формат/Информация : Digital Theater Systems
Идентификатор кодека : A_DTS
Продолжительность : 1 ч. 25 м.
Вид битрейта : Постоянный
Битрейт : 1510 Кбит/сек
Каналы : 6 каналов
Расположение каналов : Front: L C R, Side: L R, LFE
Частота : 48,0 КГц
Битовая глубина : 24 бит
Метод сжатия : С потерями
Размер потока : 924 Мбайт (11%)
Язык : English
Default : Нет
Forced : Нет
Текст
Идентификатор : 5
Формат : UTF-8
Идентификатор кодека : S_TEXT/UTF8
Идентификатор кодека/Информация : UTF-8 Plain Text
Язык : English
Default : Нет
Forced : Нет
Меню
00:00:00.000 : en:00:00:00.000
00:15:19.877 : en:00:15:19.877
00:32:33.201 : en:00:32:33.201
00:46:00.174 : en:00:46:00.174
01:01:03.785 : en:01:01:03.785
01:14:15.784 : en:01:14:15.784
01:25:35.380 : en:01:25:35.380
[Профиль] [ЛС]
Показать сообщения:    

Текущее время: Сегодня 21:34

Часовой пояс: GMT



Вы не можете начинать темы
Вы не можете отвечать на сообщения
Вы не можете редактировать свои сообщения
Вы не можете удалять свои сообщения
Вы не можете голосовать в опросах
Вы не можете прикреплять файлы к сообщениям
Вы не можете скачивать файлы