Восход Победы: Советский Блицкриг в Европе (Юрий Линкевич) [2015, Документальный, HDTV 1080i]

 
Автор Сообщение

TorrentFilm ®

Пол:

Стаж: 2 года

Сообщений: 7741



Награды: Нет

Торрент-статистика

Создавать темы 25-Янв-2015 00:01

[Цитировать]

Восход Победы: Советский Блицкриг в Европе
Год выпуска: 2015
Страна: Россия
Студия: Россия HD
Жанр: Документальный
Продолжительность: 0:43:37
Режиссер: Юрий Линкевич
Описание: На исходе лета 1944 года после блестящих побед на центральном и южном участках советско-германского фронта Красная армия развернула наступление в Прибалтике. Настало время для восьмого "сталинского удара".
Параллельно с Прибалтийской развивались Восточно-Карпатская и Белградская операции, которые составили девятый удар. Войскам Третьего Украинского фронта вместе с Народно-освободительной армией Иосипа Броз Тито предстояло освободить восточные районы Югославии и ее столицу – Белград. Война стремительно шла к победе союзников, пришло время делить добычу.

Доп. информация

9 октября Уинстон Черчилль прилетел в Москву, чтобы выбить из "дядюшки Джо" побольше уступок в Польше и на Балканах. На первой же встрече он подал советскому вождю записку с предложением разделить сферы влияния в Центральной и Южной Европе, из которой следовало, что 90% влияния в Румынии останется за русскими, 10% - за союзниками, а в Греции - ровно наоборот. Венгрия и Чехословакия – 50 на 50. Болгария: 75% - СССР, всем остальным - 25%. Сталин взял синий карандашик и поставил "птичку". Затем наступило длительное молчание. Исписанный карандашом листок бумаги лежал в центре стола. Наконец Черчилль сказал: "Не покажется ли несколько циничным, что мы решили эти вопросы, имеющие жизненно важное значение для миллионов людей, как бы экспромтом? Давайте сожжем эту бумажку". "Нет, оставьте ее себе", - сказал Сталин.
До последнего времени расшифровка сталинской птички оставалась государственной тайной. В этом фильме впервые раскрываются секретные ходы главных политических игроков той эпохи.
За лето и осень Красная армия практически полностью освободила территорию Советского Союза. Фашистский блок распался. Румыния, Болгария и Финляндия вышли из войны. Она переместилась на территорию самой Германии.
Заканчивался 1944-й - год выдающихся побед Красной армии. Наступал 1945-й – год Великой Победы.
Тип релиза: HDTV 1080i
Контейнер: TS
Видео: MPEG4 Video (H264) 1920x1080 25.00fps 8991kbps
Аудио: MPEG Audio 48000Hz stereo 224kbps

MediaInfo

ОбщееИдентификатор : 1 (0x1)Полное имя : D:\Торрент\Voshod.Pobeby-Sovetskiy.Blitckrig.v.Evrope.HDTV.1080i.[www.riper.am].tsФормат : MPEG-TSРазмер файла : 2,95 ГбайтПродолжительность : 43 м.Режим общего битрейта : ПеременныйОбщий поток : 9697 Кбит/сек
ВидеоИдентификатор : 1901 (0x76D)Идентификатор меню : 1 (0x1)Формат : AVCФормат/Информация : Advanced Video CodecПрофиль формата : High@L4.0Параметр CABAC формата : ДаПараметр ReFrames формата : 3 кадраИдентификатор кодека : 27Продолжительность : 43 м.Битрейт : 8991 Кбит/секШирина : 1920 пикселейВысота : 1080 пикселейСоотношение сторон : 16:9Частота кадров : 25,000 кадров/секСтандарт вещания : ComponentЦветовое пространство : YUVСубдискретизация насыщенности : 4:2:0Битовая глубина : 8 битТип развёртки : ЧересстрочнаяПорядок развёртки : Верхнее поле первоеБит/(Пиксели*Кадры) : 0.173Размер потока : 2,74 Гбайт (93%)Основные цвета : BT.709Характеристики трансфера : BT.709Коэффициенты матрицы : BT.709colour_range : Limited
АудиоИдентификатор : 2901 (0xB55)Идентификатор меню : 1 (0x1)Формат : MPEG AudioВерсия формата : Version 1Профиль формата : Layer 2Идентификатор кодека : 3Продолжительность : 43 м.Вид битрейта : ПостоянныйБитрейт : 224 Кбит/секКаналы : 2 каналаЧастота : 48,0 КГцМетод сжатия : С потерямиРазмер потока : 69,9 Мбайт (2%)Язык : Russian

Скриншоты

Релиз группы: RiperAM
[Профиль] [ЛС]
Показать сообщения:    

Текущее время: Сегодня 10:49

Часовой пояс: GMT



Вы не можете начинать темы
Вы не можете отвечать на сообщения
Вы не можете редактировать свои сообщения
Вы не можете удалять свои сообщения
Вы не можете голосовать в опросах
Вы не можете прикреплять файлы к сообщениям
Вы не можете скачивать файлы