Восток есть восток / East Is East (1999) BDRip 720p

 
Автор Сообщение

Белочка ®

Пол:

Стаж: 5 лет 1 месяц

Сообщений: 2089



Награды: 1 (Подробнее)

Girls (Количество: 1)
Торрент-статистика

Создавать темы 12-Окт-2014 03:57

[Цитировать]

Информация о фильме
Название: Восток есть восток
Оригинальное название: East Is East
Год выхода: 1999
Жанр: драма, комедия
Режиссер: Дэмиен О’Доннелл
В ролях: Ом Пури, Линда Бэссет, Джордан Раутледж, Арчи Панджаби, Эмил Марва, Крис Биссон, Джими Мистри, Раджи Джеймс, Иэн Эспиналл, Лесли Никол
О фильме: Северная Англия, 1971 год. В дискотеках крутят «Дип Перпл» и курят «травку». В моде — брюки клеш, длинные волосы и глобальная сексуальная революция.
Раскованные семидесятые распахнули двери потрясающих возможностей для всех желающих, кроме несчастных героев этой картины — семерых детей не очень умного, но очень гордого эмигранта из далекой восточной страны.
Ребятам серьезно не повезло с папашей! Мало того, что он — домашний тиран, так ведь еще и груб не в меру, а если что не так, то сразу в глаз может дать, без предупреждения.
Хочет он, видите ли, чтобы дети его росли темными, забитыми и послушными «скромниками» в доброй Англии, где забыли о предрассудках, и гуляет ветер свободы.

Выпущено: FilmFour
Продолжительность: 01:36:51
Перевод: Профессиональный (многоголосый, закадровый) [лицензия]
Файл
Кодек: x264
Качество: BDRip (источник: Blu-ray Disc)
Видео: 1280x720 (16:9), 23.976 fps, 5630 kbps
Аудио #1: AC-3, 6 ch, 384 kbps (Rus)
Аудио #2: AC-3, 6 ch, 448 kbps (Eng)
Субтитры: Русские, Английские
Скачать: сэмпл
Скриншоты

MI

Общее
Уникальный идентификатор : 196668919214729545499590899218971946116 (0x93F50E5A3FC5E664ABF48C00E06CEC84)
Полное имя : East.Is.East.1999.BDRip.720p.Rus.Eng.mkv
Формат : Matroska
Версия формата : Version 2
Размер файла : 4,37 Гбайт
Продолжительность : 1 ч. 36 м.
Общий поток : 6462 Кбит/сек
Название фильма : Восток есть восток / East Is East (1999)
Дата кодирования : UTC 2014-10-08 16:24:41
Программа кодирования : mkvmerge v5.8.0 ('No Sleep / Pillow') built on Sep 2 2012 15:37:04
Библиотека кодирования : libebml v1.2.3 + libmatroska v1.3.0
Видео
Идентификатор : 1
Формат : AVC
Формат/Информация : Advanced Video Codec
Профиль формата : High@L4.1
Параметр CABAC формата : Да
Параметр ReFrames формата : 9 кадров
Идентификатор кодека : V_MPEG4/ISO/AVC
Продолжительность : 1 ч. 36 м.
Битрейт : 5629 Кбит/сек
Ширина : 1280 пикселей
Высота : 720 пикселей
Соотношение сторон : 16:9
Режим частоты кадров : Постоянный
Частота кадров : 23,976 кадра/сек
Цветовое пространство : YUV
Субдискретизация насыщенности : 4:2:0
Битовая глубина : 8 бит
Тип развёртки : Прогрессивная
Бит/(Пиксели*Кадры) : 0.255
Размер потока : 3,72 Гбайт (85%)
Заголовок : Release by AlexKa
Библиотека кодирования : x264 core 142 r2479 dd79a61
Настройки программы : cabac=1 / ref=9 / deblock=1:-3:-3 / analyse=0x3:0x133 / me=umh / subme=11 / psy=1 / psy_rd=1.00:0.20 / mixed_ref=1 / me_range=32 / chroma_me=1 / trellis=2 / 8x8dct=1 / cqm=0 / deadzone=21,11 / fast_pskip=0 / chroma_qp_offset=-3 / threads=12 / lookahead_threads=2 / sliced_threads=0 / nr=0 / decimate=0 / interlaced=0 / bluray_compat=0 / constrained_intra=0 / bframes=9 / b_pyramid=2 / b_adapt=2 / b_bias=0 / direct=3 / weightb=1 / open_gop=0 / weightp=2 / keyint=240 / keyint_min=23 / scenecut=40 / intra_refresh=0 / rc=2pass / mbtree=0 / bitrate=5629 / ratetol=1.0 / qcomp=0.60 / qpmin=0 / qpmax=69 / qpstep=4 / cplxblur=20.0 / qblur=0.5 / ip_ratio=1.40 / pb_ratio=1.30 / aq=1:0.80
Язык : English
Аудио #1
Идентификатор : 2
Формат : AC-3
Формат/Информация : Audio Coding 3
Расширение режима : CM (complete main)
Параметр Endianness формата : Big
Идентификатор кодека : A_AC3
Продолжительность : 1 ч. 36 м.
Вид битрейта : Постоянный
Битрейт : 384 Кбит/сек
Каналы : 6 каналов
Расположение каналов : Front: L C R, Side: L R, LFE
Частота : 48,0 КГц
Битовая глубина : 16 бит
Метод сжатия : С потерями
Размер потока : 266 Мбайт (6%)
Заголовок : Rus
Язык : Russian
Аудио #2
Идентификатор : 3
Формат : AC-3
Формат/Информация : Audio Coding 3
Расширение режима : CM (complete main)
Параметр Endianness формата : Big
Идентификатор кодека : A_AC3
Продолжительность : 1 ч. 36 м.
Вид битрейта : Постоянный
Битрейт : 448 Кбит/сек
Каналы : 6 каналов
Расположение каналов : Front: L C R, Side: L R, LFE
Частота : 48,0 КГц
Битовая глубина : 16 бит
Метод сжатия : С потерями
Размер потока : 310 Мбайт (7%)
Заголовок : Eng
Язык : English
Текст #1
Идентификатор : 4
Формат : UTF-8
Идентификатор кодека : S_TEXT/UTF8
Идентификатор кодека/Информация : UTF-8 Plain Text
Заголовок : Rus
Язык : Russian
Текст #2
Идентификатор : 5
Формат : UTF-8
Идентификатор кодека : S_TEXT/UTF8
Идентификатор кодека/Информация : UTF-8 Plain Text
Заголовок : Eng
Язык : English
Меню
00:00:00.000 : :Chapter 01
00:03:50.664 : :Chapter 02
00:10:30.396 : :Chapter 03
00:16:30.189 : :Chapter 04
00:24:45.918 : :Chapter 05
00:28:58.303 : :Chapter 06
00:37:41.893 : :Chapter 07
00:44:26.998 : :Chapter 08
00:47:40.157 : :Chapter 09
00:54:33.203 : :Chapter 10
01:03:11.354 : :Chapter 11
01:08:59.902 : :Chapter 12
01:12:27.843 : :Chapter 13
01:17:23.606 : :Chapter 14
01:24:33.602 : :Chapter 15
01:28:02.377 : :Chapter 16

x264

x264 [info]: frame I:1242 Avg QP:17.90 size:139830
x264 [info]: frame P:27509 Avg QP:20.25 size: 50346
x264 [info]: frame B:110570 Avg QP:22.03 size: 22870
x264 [info]: consecutive B-frames: 1.3% 1.7% 2.9% 28.0% 6.9% 41.8% 2.6% 13.1% 0.5% 1.1%
[Профиль] [ЛС]
Кто просматривает тему:

Форум Тема Автор Размер
Pop (Pop, Dance) VA - Топ 100 Восточная Музыка - 2015, MP3, 320 kbps Magnat 1011 MB
Документальные HD Discovery: Природа Ближнего Востока / Wildest Middle East / 1 эпизод (5) [2014, Документальный, познавательный, природа, HDTV 1080i] TorrentFilm 2.59 GB
Документальные HD Discovery: Природа Ближнего Востока / Wildest Middle East / 1 эпизод (5) [2014, Документальный, познавательный, природа, HDTVRip 720p] TorrentFilm 1.26 GB
Nat Geo Wild Nat Geo Wild: Пустынные земли на Ближнем Востоке / Desert Lands Of The Middle East [сезон 1 серии 1-2 из 2] (Stewart Barlow) [2015 г., Документальный, научно-познавательный, HDTVRip 720p] skorpionN 3.04 GB
Viasat History Viasat History: Восточная Пруссия Гитлера / Hitler's East Prussia [серии 1-2 из 2] (Florian Huber) [2008 г., Документальный, история, SATRip] skorpionN 1.19 GB
Разная литература Азамат Рахимов - Восточные сладости (2014) FB2 достали все 2 MB
Фантастика, фэнтези Альберт Громов | С Востока на Запад строго по Гринвичу [сборник] (2015) [FB2] достали все 573 KB
Фантастика и фэнтези Васильев Андрей - Файролл 2. Пути востока (2015) MP3 Swager 250 MB
Показать сообщения:    

Текущее время: Сегодня 06:21

Часовой пояс: GMT



Вы не можете начинать темы
Вы не можете отвечать на сообщения
Вы не можете редактировать свои сообщения
Вы не можете удалять свои сообщения
Вы не можете голосовать в опросах
Вы не можете прикреплять файлы к сообщениям
Вы не можете скачивать файлы