Восставший / Risen (2016) BDRip 720p от ExKinoRay | iTunes

 
Автор Сообщение

Russian Mafia ®

Пол:

Стаж: 1 год 8 месяцев

Сообщений: 4257



Награды: 10 (Подробнее)

Mega Seeder 1 (Количество: 1) Mega Seeder 4 (Количество: 1) Top Releaser 4 (Количество: 1)
Торрент-статистика

Создавать темы 01-Сен-2016 08:48

[Цитировать]

Информация о фильме
Название: Восставший
Оригинальное название: Risen
Год выхода: 2016
Жанр: Боевик, драма, детектив, приключения
Режиссер: Кевин Рейнольдс
В ролях: Джозеф Файнс, Том Фелтон, Питер Фёрт, Клифф Кёртис, Мария Ботто, Луис Кальехо, Антонио Хиль-Мартинес, Ричард Этуилл, Марк Киллин, Стюарт Скудамор
О фильме:
В картине пойдет речь о первых 40 днях, последовавших вслед за воскресением Христа. Основным персонажем станет атеистически настроенный римский центурион, которого прокуратор Иудеи, Понтий Пилат, посылает разузнать с чем связаны слухи о воскресении Христа, а также попытаться отыскать тело этого новоявленного мессии.
[/url]
Страна: США
Студия: Liddell Entertainment, Affirm Films, Columbia Pictures, Patrick Aiello Productions
Продолжительность: 01:47:38
Перевод: Профессиональный многоголосый (закадровый) | iTunes
Файл
Кодек: MPEG-4
Качество: BDRip 720p
Видео: 1280x534, 6454 Kbit/s, 23.976 fps
Звук:
Аудио #01: 48 kHz, AC3, 5.1, 384 Kbps | Профессиональный многоголосый (закадровый), iTunes |
Аудио #02: 48 kHz, DTS, 5.1, 1510 kbps | Оригинал |
Субтитры: Русские, английские
Релиз от: Автор релиза:

MI

General
Unique ID : 171822322258653709092154822474122419139 (0x8143C68AC944E5919488C1C003605BC3)
Complete name : F:VideoRisen.2016.BDRip.720p.ExKinoRay.mkv
Format : Matroska
Format version : Version 4 / Version 2
File size : 6.28 GiB
Duration : 1h 47mn
Overall bit rate : 8 350 Kbps
Movie name : Risen.2016.BDRip.720p.ExKinoRay
Encoded date : UTC 2016-07-06 15:05:17
Writing application : mkvmerge v8.3.0 ('Over the Horizon') 64bit
Writing library : libebml v1.3.1 + libmatroska v1.4.2
Video
ID : 1
Format : AVC
Format/Info : Advanced Video Codec
Format profile : High@L4.1
Format settings, CABAC : Yes
Format settings, ReFrames : 12 frames
Codec ID : V_MPEG4/ISO/AVC
Duration : 1h 47mn
Bit rate : 6 454 Kbps
Width : 1 280 pixels
Height : 534 pixels
Display aspect ratio : 2.40:1
Frame rate mode : Constant
Frame rate : 23.976 (24000/1001) fps
Color space : YUV
Chroma subsampling : 4:2:0
Bit depth : 8 bits
Scan type : Progressive
Bits/(Pixel*Frame) : 0.394
Stream size : 4.85 GiB (77%)
Writing library : x264 core 148 r2665+53 6629127 t_mod_Custom [8-bit@all X86_64]
Encoding settings : cabac=1 / ref=12 / deblock=1:-3:-3 / analyse=0x3:0x133 / me=umh / subme=11 / psy=1 / fade_compensate=0.00 / psy_rd=1.05:0.00 / mixed_ref=1 / me_range=32 / chroma_me=1 / trellis=2 / 8x8dct=1 / cqm=0 / deadzone=21,11 / fast_pskip=0 / chroma_qp_offset=-2 / threads=16 / lookahead_threads=2 / sliced_threads=0 / nr=0 / decimate=0 / interlaced=0 / bluray_compat=0 / constrained_intra=0 / fgo=0 / bframes=8 / b_pyramid=2 / b_adapt=2 / b_bias=0 / direct=3 / weightb=1 / open_gop=0 / weightp=2 / keyint=250 / keyint_min=23 / scenecut=40 / intra_refresh=0 / rc_lookahead=150 / rc=crf / mbtree=0 / crf=14.8000 / qcomp=0.60 / qpmin=0:0:0 / qpmax=69:69:69 / qpstep=4 / vbv_maxrate=50000 / vbv_bufsize=62500 / crf_max=0.0 / nal_hrd=none / filler=0 / ip_ratio=1.30 / pb_ratio=1.20 / aq=3:0.65 / aq-sensitivity=10.00 / aq-factor=1.00:1.00:1.00 / aq2=0 / aq3=0
Language : English
Default : Yes
Forced : No
Color range : Limited
Matrix coefficients : BT.709
Audio #1
ID : 2
Format : AC-3
Format/Info : Audio Coding 3
Mode extension : CM (complete main)
Format settings, Endianness : Big
Codec ID : A_AC3
Duration : 1h 47mn
Bit rate mode : Constant
Bit rate : 384 Kbps
Channel(s) : 6 channels
Channel positions : Front: L C R, Side: L R, LFE
Sampling rate : 48.0 KHz
Frame rate : 31.250 fps (1536 spf)
Compression mode : Lossy
Stream size : 296 MiB (5%)
Title : MVO [iTunes]
Language : Russian
Default : Yes
Forced : No
Audio #2
ID : 3
Format : DTS
Format/Info : Digital Theater Systems
Mode : 16
Format settings, Endianness : Big
Codec ID : A_DTS
Duration : 1h 47mn
Bit rate mode : Constant
Bit rate : 1 509 Kbps
Channel(s) : 6 channels
Channel positions : Front: L C R, Side: L R, LFE
Sampling rate : 48.0 KHz
Frame rate : 93.750 fps (512 spf)
Bit depth : 24 bits
Compression mode : Lossy
Stream size : 1.13 GiB (18%)
Title : Original
Language : English
Default : No
Forced : No
Text #1
ID : 4
Format : UTF-8
Codec ID : S_TEXT/UTF8
Codec ID/Info : UTF-8 Plain Text
Duration : 1h 38mn
Bit rate : 61 bps
Count of elements : 902
Stream size : 44.5 KiB (0%)
Title : Full
Language : Russian
Default : No
Forced : No
Text #2
ID : 5
Format : UTF-8
Codec ID : S_TEXT/UTF8
Codec ID/Info : UTF-8 Plain Text
Duration : 1h 36mn
Bit rate : 37 bps
Count of elements : 989
Stream size : 26.5 KiB (0%)
Title : Full
Language : English
Default : No
Forced : No
Text #3
ID : 6
Format : UTF-8
Codec ID : S_TEXT/UTF8
Codec ID/Info : UTF-8 Plain Text
Duration : 1h 38mn
Bit rate : 44 bps
Count of elements : 1238
Stream size : 31.8 KiB (0%)
Title : SDH
Language : English
Default : No
Forced : No
Menu
00:00:00.000 : en:00:00:00.000
00:06:50.243 : en:00:06:50.243
00:14:18.733 : en:00:14:18.733
00:21:48.182 : en:00:21:48.182
00:27:35.195 : en:00:27:35.195
00:33:21.082 : en:00:33:21.082
00:40:03.985 : en:00:40:03.985
00:46:19.193 : en:00:46:19.193
00:54:06.243 : en:00:54:06.243
01:00:06.478 : en:01:00:06.478
01:07:53.027 : en:01:07:53.027
01:13:54.847 : en:01:13:54.847
01:19:46.657 : en:01:19:46.657
01:25:42.387 : en:01:25:42.387
01:33:16.132 : en:01:33:16.132
01:38:41.833 : en:01:38:41.833

Скриншоты

[Профиль] [ЛС]
Показать сообщения:    

Текущее время: Сегодня 17:41

Часовой пояс: GMT



Вы не можете начинать темы
Вы не можете отвечать на сообщения
Вы не можете редактировать свои сообщения
Вы не можете удалять свои сообщения
Вы не можете голосовать в опросах
Вы не можете прикреплять файлы к сообщениям
Вы не можете скачивать файлы