Восставший из ада 7 - Армия мертвецов / Проводник смерти / Hellraiser: Deader (Рик Бота / Rick Bota) [2003, США, Румыния, ужасы, триллер, BDRip 720p] MVO + MVO (Элегия) + AVO (Гаврилов) + Original Eng + Sub Eng

 
Автор Сообщение

reversefile ®

Пол:

Стаж: 4 года 5 месяцев

Сообщений: 842

Откуда: ReverseFile.org



Награды: Нет

Торрент-статистика

Создавать темы 24-Июл-2014 17:55

[Цитировать]

Восставший из ада 7 - Армия мертвецов / Проводник смерти / Hellraiser: Deader
Страна: США, Румыния
Студия: Dimension Films
Жанр: ужасы, триллер
Год выпуска: 2003
Продолжительность: 01:28:20-Перевод 1: Профессиональный (многоголосый закадровый)
Перевод 2: Профессиональный (многоголосый закадровый) Элегия
Перевод 3: Авторский (одноголосый закадровый) Гаврилов
Cубтитры: английские
Оригинальная аудиодорожка: английский-Режиссер: Рик Бота / Rick Bota
В ролях: Кари Вурер, Пол Рис, Саймон Кунц, Марк Уоррен, Джорджина Райлэнс, Даг Брэдли, Ионут Черменски, Хью Джорджин, Линда Марлоу, Мадалина Константин
Описание: Журналистка лондонской газеты Эми Кляйн отправляется в Бухарест, чтобы расследовать там действия тайной секты, члены которой добровольно расстаются с жизнью путем самоубийства. Она с легкостью проникает в мрачный мир секты, но вскоре понимает, что теперь у нее нет другого пути кроме как присоединиться к ее участникам в приготовлениях к пришествию их божества…- -Сэмпл: http://multi-up.com/988188-Тип релиза: BDRip 720p
Контейнер: MKV
Видео: MPEG4 Video (H264), 1280x720, 16:9, 5 407 Kbps, 23.98fps
Аудио 1: MVO, AC3, 6ch, 48000Hz, 384 Kbps
Аудио 2: MVO Элегия, AC3, 2ch, 48000Hz, 192 Kbps
Аудио 3: AVO Гаврилов, AC3, 6ch, 48000Hz, 384 Kbps
Аудио 4: Оригинал (английский), DTS, 6ch, 48000Hz, 1 510 Kbps

MediaInfo

General
Complete name : H:\Фильмы\MKV\Hellraiser 7 - Deader (Восставший из ада 7 - Проводник смерти) 2003\Hellraiser 7 - Deader (Восставший из ада 7 - Проводник смерти) 2003 720p (1).mkv
Format : Matroska
File size : 4.96 GiB
Duration : 1h 28mn
Overall bit rate : 8 032 Kbps
Encoded date : UTC 2014-07-22 23:32:43
Writing application : mkvmerge v7.0.0 ('Where We Going') 32bit built on Jun 9 2014 15:08:34
Writing library : libebml v1.3.0 + libmatroska v1.4.1
Video
ID : 1
Format : AVC
Format/Info : Advanced Video Codec
Format profile : High@L4.1
Format settings, CABAC : Yes
Format settings, ReFrames : 5 frames
Muxing mode : Container profile=Unknown@4.1
Codec ID : V_MPEG4/ISO/AVC
Duration : 1h 28mn
Bit rate : 5 402 Kbps
Width : 1 280 pixels
Height : 720 pixels
Display aspect ratio : 16:9
Frame rate : 23.976 fps
Color space : YUV
Chroma subsampling : 4:2:0
Bit depth : 8 bits
Scan type : Progressive
Bits/(Pixel*Frame) : 0.244
Stream size : 3.33 GiB (67%)
Title : Video
Language : English
Audio #1
ID : 2
Format : AC-3
Format/Info : Audio Coding 3
Mode extension : CM (complete main)
Codec ID : A_AC3
Duration : 1h 28mn
Bit rate mode : Constant
Bit rate : 384 Kbps
Channel(s) : 6 channels
Channel positions : Front: L C R, Side: L R, LFE
Sampling rate : 48.0 KHz
Bit depth : 16 bits
Stream size : 243 MiB (5%)
Title : MVO
Language : Russian
Audio #2
ID : 3
Format : AC-3
Format/Info : Audio Coding 3
Mode extension : CM (complete main)
Codec ID : A_AC3
Duration : 1h 28mn
Bit rate mode : Constant
Bit rate : 192 Kbps
Channel(s) : 2 channels
Channel positions : Front: L R
Sampling rate : 48.0 KHz
Bit depth : 16 bits
Stream size : 121 MiB (2%)
Title : MVO Элегия
Language : Russian
Audio #3
ID : 4
Format : AC-3
Format/Info : Audio Coding 3
Mode extension : CM (complete main)
Codec ID : A_AC3
Duration : 1h 28mn
Bit rate mode : Constant
Bit rate : 384 Kbps
Channel(s) : 6 channels
Channel positions : Front: L C R, Side: L R, LFE
Sampling rate : 48.0 KHz
Bit depth : 16 bits
Stream size : 243 MiB (5%)
Title : AVO Гаврилов
Language : Russian
Audio #4
ID : 5
Format : DTS
Format/Info : Digital Theater Systems
Codec ID : A_DTS
Duration : 1h 28mn
Bit rate mode : Constant
Bit rate : 1 510 Kbps
Channel(s) : 6 channels
Channel positions : Front: L C R, Side: L R, LFE
Sampling rate : 48.0 KHz
Bit depth : 24 bits
Stream size : 954 MiB (19%)
Title : Original
Language : English
Text
ID : 6
Format : UTF-8
Codec ID : S_TEXT/UTF8
Codec ID/Info : UTF-8 Plain Text
Title : English subtitles
Language : English
Menu
00:00:00.000 : en:00:00:00.000
00:06:25.760 : en:00:06:39.399
00:13:29.266 : en:00:13:42.905
00:23:22.067 : en:00:23:35.706
00:32:14.432 : en:00:32:28.071
00:38:08.661 : en:00:38:22.300
00:47:01.985 : en:00:47:15.624
00:52:27.644 : en:00:52:41.283
00:58:19.496 : en:00:58:33.135
01:04:06.968 : en:01:04:20.607
01:14:45.856 : en:01:14:59.495
01:24:09.753 : en:01:24:23.392

-

Скриншоты

[Профиль] [ЛС]
Показать сообщения:    

Текущее время: Сегодня 14:08

Часовой пояс: GMT



Вы не можете начинать темы
Вы не можете отвечать на сообщения
Вы не можете редактировать свои сообщения
Вы не можете удалять свои сообщения
Вы не можете голосовать в опросах
Вы не можете прикреплять файлы к сообщениям
Вы не можете скачивать файлы