Восставшие мертвецы / Dead Rising: Watchtower (2015) HDRip | P

 
Автор Сообщение

достали все ®

Пол:

Стаж: 1 год 8 месяцев

Сообщений: 6600



Награды: 12 (Подробнее)

Mega Releaser 2 (Количество: 1) Mega Releaser 3 (Количество: 1) Mega Seeder 5 (Количество: 1)
Торрент-статистика

Создавать темы 26-Сен-2015 13:02

[Цитировать]

Информация о фильме
Название: Восставшие мертвецы
Оригинальное название: Dead Rising: Watchtower
Год выпуска: 2015
Жанр: Боевик, ужасы, триллер
Режиссер: Зак Липовски
В ролях: Меган Ори, Киган Коннор Трейси, Вирджиния Мэдсен, Дэннис Хэйсберт, Роб Риггл, Джесси Меткалф, Джулия Андерсон, Алекс Паунович, Питер Бенсон, Патрик Сабонгуй, Харли Моренштейн, Кэрри Гензел, С. Эрнст Харт, Сачин Сахель, Гари Джонс, Пол Лейзенби, Мэнни Хасинто, Риз Александр, Тая Клайн, Колтон Квон
О фильме: США охватила глобальная эпидемия, в результате которой люди превращаются в кровожадных зомби. Чейз Картер — журналист, который отправляется в опасную зону, вместе с оператором Трейси, чтобы сделать сюжет о надвигающейся катастрофе. Во время съемок они берут интервью у здоровой девушки Кристал, которая рассказывает ужасную правду о том, что в зоне заражения все обречены. В скором порядке власти принимают решение изолировать эту зону, не сделав ничего для эвакуации здоровых людей. Теперь журналисту и группе людей, избежавших заражения, предстоит сделать все возможное, чтобы выбраться из опасной зоны, заполненной кровожадными зомби…


Выпущено: США, Legendary Digital Media, Contradiction Films, Di Bonaventura Pictures
Продолжительность: 01:58:07
Перевод: Профессиональное (многоголосое) официальное
Файл
Формат: AVI (XviD)
Качество: HDRip
Видео: 746 kb/s, 688x288
Аудио: MP3, 128 kb/s (2 ch)
Размер: 745 MB
Скачать: Сэмпл-

Media Info

General
Complete name : V0sstavshie.mert7eci.2015.D.HDRip.745MB.avi
Format : AVI
Format/Info : Audio Video Interleave
File size : 746 MiB
Duration : 1h 58mn
Overall bit rate : 884 Kbps
Writing application : VirtualDubMod 1.5.10.2 (build 2540/release)
Writing library : VirtualDubMod build 2540/release
Video
ID : 0
Format : MPEG-4 Visual
Format profile : Advanced Simple@L5
Format settings, BVOP : 1
Format settings, QPel : No
Format settings, GMC : No warppoints
Format settings, Matrix : Custom
Codec ID : XVID
Codec ID/Hint : XviD
Duration : 1h 58mn
Bit rate : 746 Kbps
Width : 688 pixels
Height : 288 pixels
Display aspect ratio : 2.40:1
Frame rate : 23.976 fps
Color space : YUV
Chroma subsampling : 4:2:0
Bit depth : 8 bits
Scan type : Progressive
Compression mode : Lossy
Bits/(Pixel*Frame) : 0.157
Stream size : 630 MiB (84%)
Writing library : XviD 73
Audio
ID : 1
Format : MPEG Audio
Format version : Version 1
Format profile : Layer 3
Mode : Joint stereo
Mode extension : MS Stereo
Codec ID : 55
Codec ID/Hint : MP3
Duration : 1h 58mn
Bit rate mode : Constant
Bit rate : 128 Kbps
Channel(s) : 2 channels
Sampling rate : 48.0 KHz
Compression mode : Lossy
Stream size : 108 MiB (14%)
Alignment : Aligned on interleaves
Interleave, duration : 42 ms (1.00 video frame)
Interleave, preload duration : 504 ms
- -

Скриншоты

-
[Профиль] [ЛС]
Показать сообщения:    

Текущее время: Сегодня 03:21

Часовой пояс: GMT



Вы не можете начинать темы
Вы не можете отвечать на сообщения
Вы не можете редактировать свои сообщения
Вы не можете удалять свои сообщения
Вы не можете голосовать в опросах
Вы не можете прикреплять файлы к сообщениям
Вы не можете скачивать файлы