Восставшие мертвецы / Dead Rising (2015) BDRip 1080p | L2

 
Автор Сообщение

достали все ®

Пол:

Стаж: 1 год 8 месяцев

Сообщений: 6571



Награды: 12 (Подробнее)

Mega Releaser 1 (Количество: 1) Top Releaser 3 (Количество: 1) Top Releaser 2 (Количество: 1)
Торрент-статистика

Создавать темы 07-Авг-2015 07:20

[Цитировать]

Информация о фильме
Название: Восставшие мертвецы
Оригинальное название: Dead Rising
Год выпуска: 2015
Жанр: Боевик, ужасы, триллер
Режиссер: Зак Липовски
В ролях: Меган Ори, Киган Коннор Трейси, Вирджиния Мэдсен, Дэннис Хэйсберт, Роб Риггл, Джесси Меткалф, Джулия Андерсон, Алекс Паунович, Питер Бенсон, Патрик Сабонгуй, Харли Моренштейн, Кэрри Гензел, С. Эрнст Харт, Сачин Сахель, Гари Джонс, Пол Лейзенби, Мэнни Хасинто, Риз Александр, Тая Клайн, Колтон Квон
О фильме: США охватила глобальная эпидемия, в результате которой люди превращаются в кровожадных зомби. Чейз Картер — журналист, который отправляется в опасную зону, вместе с оператором Трейси, чтобы сделать сюжет о надвигающейся катастрофе. Во время съемок они берут интервью у здоровой девушки Кристал, которая рассказывает ужасную правду о том, что в зоне заражения все обречены. В скором порядке власти принимают решение изолировать эту зону, не сделав ничего для эвакуации здоровых людей. Теперь журналисту и группе людей, избежавших заражения, предстоит сделать все возможное, чтобы выбраться из опасной зоны, заполненной кровожадными зомби…

Страна: США / Legendary Digital Media, Contradiction Films, Di Bonaventura Pictures
Продолжительность: 01:58:07
Перевод: Любительский (двухголосый, закадровый) - Sunny-Films
Файл
Качество: BDRip 1080p
Формат: MKV
Видео: MPEG4/AVC, 11.0 Мбит/сек, 1920х800 (2.40:1), 23.976 кадра/сек
Аудио 1: АС3, 2 канала, 192 Кбит/сек | Русский
Аудио 2: DTS, 6 каналов, 1509 Кбит/сек | Английский
Субтитры: Английские
Навигация по главам: Есть

MediaInfo:

Общее
Уникальный идентификатор : 209531186868071026338180298830296176771 (0x9DA23D1BEA9DE660ABBC9E8B1A80D883)
Полное имя : Dead Rising. (2015) BDRip 1080p.mkv
Формат : Matroska
Версия формата : Version 2
Размер файла : 10,5 Гбайт
Продолжительность : 1 ч. 58 м.
Общий поток : 12,7 Мбит/сек
Название фильма : Dead Rising. 2015
Дата кодирования : UTC 2015-08-06 20:27:06
Программа кодирования : mkvmerge v5.8.0 ('No Sleep / Pillow') built on Sep 2 2012 15:37:04
Библиотека кодирования : libebml v1.2.3 + libmatroska v1.3.0
Видео
Идентификатор : 1
Формат : AVC
Формат/Информация : Advanced Video Codec
Профиль формата : High@L4.1
Параметр CABAC формата : Да
Параметр ReFrames формата : 5 кадров
Идентификатор кодека : V_MPEG4/ISO/AVC
Продолжительность : 1 ч. 58 м.
Битрейт : 11,0 Мбит/сек
Ширина : 1920 пикселей
Высота : 800 пикселей
Соотношение сторон : 2,40:1
Режим частоты кадров : Постоянный
Частота кадров : 23,976 кадра/сек
Цветовое пространство : YUV
Субдискретизация насыщенности : 4:2:0
Битовая глубина : 8 бит
Тип развёртки : Прогрессивная
Бит/(Пиксели*Кадры) : 0.299
Размер потока : 8,86 Гбайт (85%)
Библиотека кодирования : x264 core 146 r2538 121396c
Настройки программы : cabac=1 / ref=5 / deblock=1:-2:-2 / analyse=0x3:0x133 / me=umh / subme=10 / psy=1 / psy_rd=1.03:0.15 / mixed_ref=1 / me_range=48 / chroma_me=1 / trellis=2 / 8x8dct=1 / cqm=0 / deadzone=21,11 / fast_pskip=1 / chroma_qp_offset=-3 / threads=12 / lookahead_threads=2 / sliced_threads=0 / nr=0 / decimate=1 / interlaced=0 / bluray_compat=0 / constrained_intra=0 / bframes=7 / b_pyramid=2 / b_adapt=2 / b_bias=0 / direct=3 / weightb=1 / open_gop=0 / weightp=2 / keyint=240 / keyint_min=23 / scenecut=40 / intra_refresh=0 / rc_lookahead=50 / rc=2pass / mbtree=1 / bitrate=11000 / ratetol=1.0 / qcomp=0.60 / qpmin=0 / qpmax=30 / qpstep=4 / cplxblur=20.0 / qblur=0.5 / vbv_maxrate=30000 / vbv_bufsize=38000 / nal_hrd=none / filler=0 / ip_ratio=1.40 / aq=3:0.85
Язык : English
Default : Да
Forced : Нет
Аудио #1
Идентификатор : 2
Формат : AC-3
Формат/Информация : Audio Coding 3
Расширение режима : CM (complete main)
Параметр Endianness формата : Big
Идентификатор кодека : A_AC3
Продолжительность : 1 ч. 58 м.
Вид битрейта : Постоянный
Битрейт : 192 Кбит/сек
Каналы : 2 канала
Расположение каналов : Front: L R
Частота : 48,0 КГц
Битовая глубина : 16 бит
Метод сжатия : С потерями
Размер потока : 162 Мбайт (2%)
Заголовок : L2 | Sunny-Films
Язык : Russian
Default : Да
Forced : Нет
Аудио #2
Идентификатор : 3
Формат : DTS
Формат/Информация : Digital Theater Systems
Режим : 16
Параметр Endianness формата : Big
Идентификатор кодека : A_DTS
Продолжительность : 1 ч. 58 м.
Вид битрейта : Постоянный
Битрейт : 1509 Кбит/сек
Каналы : 6 каналов
Расположение каналов : Front: L C R, Side: L R, LFE
Частота : 48,0 КГц
Битовая глубина : 24 бит
Метод сжатия : С потерями
Размер потока : 1,25 Гбайт (12%)
Заголовок : Original
Язык : English
Default : Нет
Forced : Нет
Текст
Идентификатор : 4
Формат : UTF-8
Идентификатор кодека : S_TEXT/UTF8
Идентификатор кодека/Информация : UTF-8 Plain Text
Заголовок : Full
Язык : English
Default : Нет
Forced : Нет
Меню
00:00:00.000 : en:00:00:00.000
00:15:38.437 : en:00:15:38.437
00:31:02.527 : en:00:31:02.527
00:47:07.116 : en:00:47:07.116
00:58:40.267 : en:00:58:40.267
01:18:10.436 : en:01:18:10.436
01:35:17.337 : en:01:35:17.337
01:49:46.580 : en:01:49:46.580
Релиз от:
[Профиль] [ЛС]
Показать сообщения:    

Текущее время: Сегодня 20:26

Часовой пояс: GMT



Вы не можете начинать темы
Вы не можете отвечать на сообщения
Вы не можете редактировать свои сообщения
Вы не можете удалять свои сообщения
Вы не можете голосовать в опросах
Вы не можете прикреплять файлы к сообщениям
Вы не можете скачивать файлы