Воспоминания о будущем / Testament of Youth (2014) BDRip 720p | iTunes

 
Автор Сообщение

достали все ®

Пол:

Стаж: 1 год 8 месяцев

Сообщений: 6527



Награды: 12 (Подробнее)

Mega Releaser 3 (Количество: 1) Mega Releaser 2 (Количество: 1) Mega Seeder 1 (Количество: 1)
Торрент-статистика

Создавать темы 12-Июн-2015 08:07

[Цитировать]

Информация о фильме
Название: Воспоминания о будущем
Оригинальное название: Testament of Youth
Год выхода: 2014
Жанр: Драма, военный, биография, история
Режиссер: Джеймс Кент
В ролях: Алисия Викандер, Кит Харингтон, Эмили Уотсон, Хейли Этвелл, Колин Морган, Доминик Уэст, Миранда Ричардсон, Тэрон Эджертон, Джоэнна Скэнлэн, Рэйчел Редфорд
О фильме:
Британская женщина вспоминает о том, как она жила во времена Первой мировой войны. Ее юность, мечты, первую любовь — все это разрушила война.

Страна: Великобритания
Студия: BBC Films, Heyday Films
Продолжительность: 02:09:44
Озвучивание: Дублированное- iTunes
Файл
Кодек: MPEG-4 AVC
Качество: BDRip 720p
Видео: 6321 Кбит/с, 1280x536
Звук: Русский (AC3, 6 ch, 384 Кбит/с), английский (AC3, 6 ch, 640 Кбит/с)
Субтитры: Английские, румынские
Семпл

Скриншоты

MediaInfo

General
Unique ID : 196052288924231460422512916946511279572 (0x937E4C21C860F14B8AD15F02696D35D4)
Testament.of.Youth.2014.720p.BluRay.DD5.1.x264.Rus.Eng.Subs-VietHD.mkv
Format : Matroska
Format version : Version 4 / Version 2
File size : 6.79 GiB
Duration : 2h 9mn
Overall bit rate : 7 495 Kbps
Movie name : Testament.of.Youth.2014.720p.BluRay.DD5.1.x264-VietHD
Encoded date : UTC 2015-06-11 20:58:58
Writing application : mkvmerge v7.9.0 ('Birds') 64bit
Writing library : libebml v1.3.1 + libmatroska v1.4.2
_STATISTICS_WRITING_APP : mkvmerge v7.9.0 ('Birds') 64bit
_STATISTICS_WRITING_DATE_UT : 2015-06-11 20:58:58
_STATISTICS_TAGS : BPS DURATION NUMBER_OF_FRAMES NUMBER_OF_BYTES
DURATION : 02:09:44.128000000
NUMBER_OF_FRAMES : 243254
NUMBER_OF_BYTES : 373638144
Video
ID : 1
Format : AVC
Format/Info : Advanced Video Codec
Format profile : High@L4.1
Format settings, CABAC : Yes
Format settings, ReFrames : 12 frames
Codec ID : V_MPEG4/ISO/AVC
Duration : 2h 9mn
Bit rate : 6 321 Kbps
Width : 1 280 pixels
Height : 536 pixels
Display aspect ratio : 2.40:1
Frame rate mode : Constant
Frame rate : 23.976 fps
Color space : YUV
Chroma subsampling : 4:2:0
Bit depth : 8 bits
Scan type : Progressive
Bits/(Pixel*Frame) : 0.384
Stream size : 5.73 GiB (84%)
Writing library : x264 core 146 r0+2584 6cf85c6 t_mod_Custom [8-bit@all ]
Encoding settings : cabac=1 / ref=12 / deblock=1:-3:-3 / analyse=0x3:0x133 / me=umh / subme=10 / psy=1 / fade_compensate=0.00 / psy_rd=1.00:0.00 / mixed_ref=1 / me_range=24 / chroma_me=1 / trellis=2 / 8x8dct=1 / cqm=0 / deadzone=21,11 / fast_pskip=0 / chroma_qp_offset=-2 / threads=12 / lookahead_threads=3 / sliced_threads=0 / nr=0 / decimate=0 / interlaced=0 / bluray_compat=0 / constrained_intra=0 / fgo=0 / bframes=11 / b_pyramid=2 / b_adapt=2 / b_bias=0 / direct=3 / weightb=1 / open_gop=0 / weightp=2 / keyint=250 / keyint_min=23 / scenecut=40 / intra_refresh=0 / rc_lookahead=60 / rc=crf / mbtree=0 / crf=15.8000 / qcomp=0.65 / qpmin=0:0:0 / qpmax=69:69:69 / qpstep=4 / vbv_maxrate=62500 / vbv_bufsize=78125 / crf_max=0.0 / nal_hrd=none / filler=0 / ip_ratio=1.40 / pb_ratio=1.30 / aq=3:0.85 / aq-sensitivity=10.00 / aq-factor=1.00:1.00:1.00 / aq2=0 / aq3=0
Language : English
Default : Yes
Forced : No
Color range : Limited
Matrix coefficients : BT.709
_STATISTICS_WRITING_APP : mkvmerge v7.9.0 ('Birds') 64bit
_STATISTICS_WRITING_DATE_UT : 2015-06-11 20:58:58
_STATISTICS_TAGS : BPS DURATION NUMBER_OF_FRAMES NUMBER_OF_BYTES
DURATION : 02:09:44.027000000
NUMBER_OF_FRAMES : 186630
NUMBER_OF_BYTES : 6293665867
Audio #1
ID : 2
Format : AC-3
Format/Info : Audio Coding 3
Mode extension : CM (complete main)
Format settings, Endianness : Big
Codec ID : A_AC3
Duration : 2h 9mn
Bit rate mode : Constant
Bit rate : 384 Kbps
Channel(s) : 6 channels
Channel positions : Front: L C R, Side: L R, LFE
Sampling rate : 48.0 KHz
Compression mode : Lossy
Stream size : 356 MiB (5%)
Language : Russian
Default : Yes
Forced : No
Audio #2
ID : 3
Format : AC-3
Format/Info : Audio Coding 3
Mode extension : CM (complete main)
Format settings, Endianness : Big
Codec ID : A_AC3
Duration : 2h 9mn
Bit rate mode : Constant
Bit rate : 640 Kbps
Channel(s) : 6 channels
Channel positions : Front: L C R, Side: L R, LFE
Sampling rate : 48.0 KHz
Compression mode : Lossy
Stream size : 594 MiB (9%)
Language : English
Default : No
Forced : No
Text #1
ID : 4
Format : UTF-8
Codec ID : S_TEXT/UTF8
Codec ID/Info : UTF-8 Plain Text
Language : Romanian
Default : No
Forced : No
Text #2
ID : 5
Format : UTF-8
Codec ID : S_TEXT/UTF8
Codec ID/Info : UTF-8 Plain Text
Language : English
Default : No
Forced : No
Text #3
ID : 6
Format : UTF-8
Codec ID : S_TEXT/UTF8
Codec ID/Info : UTF-8 Plain Text
Language : English
Default : No
Forced : No
Menu
00:00:00.000 : en:00:00:00.000
00:10:38.763 : en:00:10:38.763
00:20:37.695 : en:00:20:37.695
00:30:48.263 : en:00:30:48.263
00:39:06.344 : en:00:39:06.344
00:50:45.751 : en:00:50:45.751
01:00:15.529 : en:01:00:15.529
01:09:32.460 : en:01:09:32.460
01:19:41.026 : en:01:19:41.026
01:31:14.010 : en:01:31:14.010
01:39:57.116 : en:01:39:57.116
01:51:01.071 : en:01:51:01.071
[Профиль] [ЛС]
Кто просматривает тему:

Форум Тема Автор Размер
Фильмы 2015 года Воспоминания меча / Hyeomnyeo: Kar-ui gi-eok (2015) HDRip | L2 достали все 2.05 GB
Фильмы (HD Rips | 720p, 1080p) Воспоминания о будущем / Testament of Youth (2014) BDRip 1080p | iTunes достали все 13.34 GB
Фильмы 2014 года Воспоминания о будущем / Testament of Youth (2014) HDRip | iTunes достали все 2.03 GB
Фильмы 2014 года Воспоминания о будущем / Testament of Youth (Джеймс Кент) [2014, драма, военный, биография, история] HDRip | iTunes BOSS 1.46 GB
Фильмы 2009 года Обманчивая память / Воспоминания о лжи / Solitary / A Memory of Lies (Грег Дероши / Greg Derochie) [2009, США, детектив, HDTVRip] MVO TorrentFilm 1.42 GB
Фантастика и фэнтези Павел Старовойтов - Вселенная Метро 2033. Воспоминания (2015) MP3 Swager 126 MB
Фильмы (HD Rips | 720p, 1080p) Реальные воспоминания международного убийцы / True Memoirs of an International Assassin (2016) WEBRip 1080р | L BOSS 4.03 GB
Фильмы (HD Rips | 720p, 1080p) Реальные воспоминания международного убийцы / True Memoirs of an International Assassin (2016) WEBRip 720р | L BOSS 3.33 GB
Показать сообщения:    

Текущее время: Сегодня 00:10

Часовой пояс: GMT



Вы не можете начинать темы
Вы не можете отвечать на сообщения
Вы не можете редактировать свои сообщения
Вы не можете удалять свои сообщения
Вы не можете голосовать в опросах
Вы не можете прикреплять файлы к сообщениям
Вы не можете скачивать файлы