Воспитатель / La Tutora (2016) WEB-DLRip | Sub

 
Автор Сообщение

Russian Mafia ®

Пол:

Стаж: 1 год 8 месяцев

Сообщений: 4252



Награды: 10 (Подробнее)

Top Releaser 5 (Количество: 1) Mega Seeder 2 (Количество: 1) Top Releaser 3 (Количество: 1)
Торрент-статистика

Создавать темы 17-Окт-2016 10:44

[Цитировать]

Воспитатель / Обожжённые колени / Burnt Knees / La Tutora
Страна: Аргентина
Производство: Noel Films
Год выпуска: 2016
Жанр: фэнтези, драма, детектив
Продолжительность: 01:54:27
Режиссер: Иван Ноэль
Авторы сценария: Генри Джеймс, Иван Ноэль
В ролях: валентино Винко, Ромина Пинто, Кристина Мареска, Малена Алонсо, Хулио Мендес
Описание: Мона получает свою первую работу гувернантки для двух детей-сирот, проживающих в старом заброшенном доме в деревне. Фанатичное стремление перевоспитания этих почти одичавших детей переходит в навязчивую идею и не позволяет женщине заметить, что у подопечных на неё имеются другие планы...

Перевод: отсутствует | субтитры
Субтитры: отдельными файлами | русские, английские-Качество: WEB-DLRip
Формат: AVI
Видео кодек: XviD
Аудио кодек: АС3
Видео: 720x304 (2.35:1), 23.976 fps, XviD build 67 ~1 592 kbps avg, 0.303 bit/pixel
Аудио: 48.0 kHz, AC3 Dolby Digital, 2/0 (L,R) ch, ~224 kbps | SPA / испанский
Формат субтитров: *SRT
Дата премьеры (мир): 1 января 2017

Релиз от: dalemake
Дополнительная информация: русские субтитры от - Евгений Венгеровский

Media Info

General
Полное имя : Vospitatel`_2017_WEB-DLRip_by_Dalemake.avi
Формат : AVI
Формат/Информация : Audio Video Interleave
Размер файла : 1,46 Гбайт
Продолжительность : 1 ч. 54 м.
Общий поток : 1825 Кбит/сек
Программа кодирования : VirtualDubMod 1.5.10.3 | (build 2550/release)
Библиотека кодирования : VirtualDubMod build 2550/release
Видео
Идентификатор : 0
Формат : MPEG-4 Visual
Профиль формата : Advanced Simple@L5
Параметр BVOP формата : 1
Параметр QPel формата : Нет
Параметр GMC формата : Без точки перехода
Параметр матрицы формата : Выборочная
Идентификатор кодека : XVID
Идентификатор кодека/Подсказка : XviD
Продолжительность : 1 ч. 54 м.
Битрейт : 1592 Кбит/сек
Ширина : 720 пикселей
Высота : 304 пикселя
Соотношение сторон : 2,35:1
Частота кадров : 23,976 кадра/сек
Цветовое пространство : YUV
Субдискретизация насыщенности : 4:2:0
Битовая глубина : 8 бит
Тип развёртки : Прогрессивная
Метод сжатия : С потерями
Бит/(Пиксели*Кадры) : 0.303
Размер потока : 1,27 Гбайт (87%)
Библиотека кодирования : XviD 67
Аудио
Идентификатор : 1
Формат : AC-3
Формат/Информация : Audio Coding 3
Расширение режима : CM (complete main)
Параметр Endianness формата : Big
Идентификатор кодека : 2000
Продолжительность : 1 ч. 54 м.
Вид битрейта : Постоянный
Битрейт : 224 Кбит/сек
Каналы : 2 канала
Расположение каналов : Front: L R
Частота : 48,0 КГц
Битовая глубина : 16 бит
Метод сжатия : С потерями
Размер потока : 183 Мбайт (12%)
Выравнивание : Разделение по промежуткам
Продолжительность промежутка : 42 мс. (1,00 видеокадр)
Время предзагрузки промежутка : 500 мс.

Скриншоты

[Профиль] [ЛС]
Показать сообщения:    

Текущее время: Сегодня 08:52

Часовой пояс: GMT



Вы не можете начинать темы
Вы не можете отвечать на сообщения
Вы не можете редактировать свои сообщения
Вы не можете удалять свои сообщения
Вы не можете голосовать в опросах
Вы не можете прикреплять файлы к сообщениям
Вы не можете скачивать файлы