Воспитание чувств / An Education (Лоне Шерфиг / Lone Scherfig) [2009, Великобритания, Драма, SATRip] [Open Matte] MVO

 
Автор Сообщение

TorrentFilm ®

Пол:

Стаж: 2 года

Сообщений: 7741



Награды: Нет

Торрент-статистика

Создавать темы 18-Фев-2016 00:09

[Цитировать]

Воспитание чувств / An Education / Open Matte
Страна: Великобритания
Жанр: Драма
Год выпуска: 2009
Продолжительность: 01:32:09
Перевод: Профессиональный (многоголосый закадровый)
Cубтитры: нет
Оригинальная аудиодорожка: нет
Режиссер: Лоне Шерфиг / Lone Scherfig
В ролях: Кэри Маллиган, Питер Сарсгаард, Доминик Купер, Розамунд Пайк, Эмма Томпсон, Оливия Уильямс, Альфред Молина, Кэра Сеймур, Уильям Меллинг, Коннор Кэчпоул
Описание: Дженни 16 лет, она способная ученица, талантливая виолончелистка и просто хорошая девочка. Она мечтает об образовании, и конкретно об Оксфорде. На дворе начало 60-х, а Дженни живет в сонной и скучной провинции. Оксфорд — ее шанс. И тут Дженни знакомится с обаятельным красавцем Дэвидом, который вдвое ее старше, но зато водит спортивную машину, носит модную одежду, знает о джазе и Равеле, арт-аукционах и закрытых клубах, уикендах в Париже и прочих шикарных вещах. После этого Оксфорд перестает казаться Дженни обязательным пунктом программы.
Доп. информация: DVB имеет иное наполнение кадра чем BD http://screenshotcomparison.com/comparison/162284
Сэмпл: http://multi-up.com/1089488
Качество видео: SATRip
Формат видео: AVI
Видео: MPEG4, XviD, 720x400 (16:9), 25.000 fps, 1 926 Kbps (0.268 bit/pixel)
Аудио: AC-3, 48.0 KHz, 2 ch, 192 Kbps, CBR

MediaInfo

Общее
Полное имя : N:\Воспитание чувств.avi
Формат : AVI
Формат/Информация : Audio Video Interleave
Размер файла : 1,37 Гбайт
Продолжительность : 1 ч. 32 м.
Общий поток : 2128 Кбит/сек
Название фильма : Воспитание чувств / An Education (2009)
Программа кодирования : VirtualDubMod 1.5.10.2 (build 2540/release)
Библиотека кодирования : VirtualDubMod build 2540/release
Авторское право : miha2154
Видео
Идентификатор : 0
Формат : MPEG-4 Visual
Профиль формата : Advanced Simple@L5
Параметр BVOP формата : 1
Параметр QPel формата : Нет
Параметр GMC формата : Без точки перехода
Параметр матрицы формата : Выборочная
Идентификатор кодека : XVID
Идентификатор кодека/Подсказка : XviD
Продолжительность : 1 ч. 32 м.
Битрейт : 1926 Кбит/сек
Ширина : 720 пикселей
Высота : 400 пикселей
Соотношение сторон : 16:9
Частота кадров : 25,000 кадров/сек
Цветовое пространство : YUV
Субдискретизация насыщенности : 4:2:0
Битовая глубина : 8 бит
Тип развёртки : Прогрессивная
Метод сжатия : С потерями
Бит/(Пиксели*Кадры) : 0.268
Размер потока : 1,24 Гбайт (91%)
Библиотека кодирования : XviD 65
Аудио
Идентификатор : 1
Формат : AC-3
Формат/Информация : Audio Coding 3
Расширение режима : CM (complete main)
Параметр Endianness формата : Big
Идентификатор кодека : 2000
Продолжительность : 1 ч. 32 м.
Вид битрейта : Постоянный
Битрейт : 192 Кбит/сек
Каналы : 2 канала
Расположение каналов : Front: L R
Частота : 48,0 КГц
Частота кадров : 31,250 кадров/сек (1536 spf)
Метод сжатия : С потерями
Размер потока : 127 Мбайт (9%)
Выравнивание : Разделение по промежуткам
Продолжительность промежутка : 40 мс. (1,00 видеокадр)
Время предзагрузки промежутка : 500 мс.
Заголовок : Профессиональный (многоголосый закадровый)

Скриншоты


[Профиль] [ЛС]

Создавать темы 12-Июн-2016 07:56 (спустя 3 месяца 23 дня)

Топик был перенесен из форума Фильмы 2011 года в форум Фильмы 2009 года
Russian Mafia
 
Показать сообщения:    

Текущее время: Сегодня 12:15

Часовой пояс: GMT



Вы не можете начинать темы
Вы не можете отвечать на сообщения
Вы не можете редактировать свои сообщения
Вы не можете удалять свои сообщения
Вы не можете голосовать в опросах
Вы не можете прикреплять файлы к сообщениям
Вы не можете скачивать файлы