Воскрешение / Resurrection (Рассел Малкэй) [1999 г., ужасы, триллер, драма, криминал, детектив, DVDRip-AVC] [DVO, AVO]

 
Автор Сообщение

Bathory ®

Пол:

Стаж: 9 месяцев 1 день

Сообщений: 169



Награды: 3 (Подробнее)

Girls (Количество: 1) За внесенный вклад в развитие сайта (Количество: 1) Друг (Количество: 1)
Торрент-статистика

Создавать темы 09-Апр-2016 14:42

[Цитировать]

Воскрешение / Resurrection- Информация о фильме
Название: Воскрешение
Оригинальное название: Resurrection
Год выхода: 1999
Жанр: ужасы, триллер, драма, криминал, детектив
Режиссер: Рассел Малкэй
В ролях: Кристофер Ламберт, Лиленд Орсер, Роберт Джой, Барбара Тайсон, Рик Фокс, Дэвид Кроненберг, Джонатан Поттс, Питер МакНейл, Филип Уильямс, Джейн Иствуд
О фильме:
Детектив Джон Прудомм получает задание расследовать серию убийств, которые связаны тем, что маньяк — убийца отрезает у умирающих жертв то ногу, то руку, то голову. Не понимая мотивов этих отвратительных преступлений, полиция бессильно наблюдает, как маньяк собирает человеческое тело из кусков других.
Тем временем Прудомм находит убийцу. Его причастность к убийствам очевидна, но не доказана. После суда он с улыбкой выходит на свободу, чтобы продолжить свои кровавые деяния. Но теперь он осторожнее, и поймать его гораздо труднее…

Страна: США, Канада
Студия: Baldwin/Cohen Productions, Interlight, Resurrection Productions Inc.
Продолжительность: 01:43:10
Перевод:
1. Профессиональный (двухголосый, закадровый)
2. Авторский (одноголосый, закадровый) Ю.Живов
Файл
Кодек: AVC
Качество: DVDRip-AVC
Видео: 712x544@1007x544, 2124 kbps, 25 fps, 0,219 Bits/(Pixel*Frame)
Звук:
1. AC3, 48 kHz, 6 ch, 448 kbps - RUS (DVO)
2. AC3, 48 kHz, 6 ch, 448 kbps - RUS (AVO)
3. AC3, 48 kHz, 6 ch, 448 kbps - ENG (Original)
Субтитры: Русские, английские

MI

General
Unique ID : 190474758244441102888655022021874718827 (0x8F4C1AA35E0EA6569B4068774586986B)
Complete name : E:\Resurrection.1999.DVDRip-AVC_by_Bathory.mkv
Format : Matroska
Format version : Version 4 / Version 2
File size : 2.18 GiB
Duration : 1h 43mn
Overall bit rate : 3 022 Kbps
Encoded date : UTC 2016-04-09 14:17:42
Writing application : mkvmerge v8.6.1 ('Flying') 64bit
Writing library : libebml v1.3.3 + libmatroska v1.4.4
DURATION : 01:38:21.953000000
NUMBER_OF_FRAMES : 1119
NUMBER_OF_BYTES : 41122
_STATISTICS_WRITING_APP : mkvmerge v8.6.1 ('Flying') 64bit
_STATISTICS_WRITING_DATE_UTC : 2016-04-09 14:17:42
_STATISTICS_TAGS : BPS DURATION NUMBER_OF_FRAMES NUMBER_OF_BYTES
Video
ID : 1
Format : AVC
Format/Info : Advanced Video Codec
Format profile : High@L4.1
Format settings, CABAC : Yes
Format settings, ReFrames : 14 frames
Codec ID : V_MPEG4/ISO/AVC
Duration : 1h 43mn
Bit rate : 2 124 Kbps
Width : 712 pixels
Height : 544 pixels
Display aspect ratio : 1.85:1
Frame rate mode : Constant
Frame rate : 25.000 fps
Color space : YUV
Chroma subsampling : 4:2:0
Bit depth : 8 bits
Scan type : Progressive
Bits/(Pixel*Frame) : 0.219
Stream size : 1.49 GiB (68%)
Title : Resurrection.1999.DVDRip-AVC_by_Bathory
Writing library : x264 core 148 r2665 a01e339
Encoding settings : cabac=1 / ref=14 / deblock=1:-1:-1 / analyse=0x3:0x133 / me=umh / subme=11 / psy=1 / psy_rd=1.10:0.10 / mixed_ref=1 / me_range=32 / chroma_me=1 / trellis=2 / 8x8dct=1 / cqm=0 / deadzone=21,11 / fast_pskip=0 / chroma_qp_offset=-3 / threads=12 / lookahead_threads=3 / sliced_threads=0 / nr=0 / decimate=0 / interlaced=0 / bluray_compat=0 / constrained_intra=0 / bframes=16 / b_pyramid=2 / b_adapt=2 / b_bias=0 / direct=3 / weightb=1 / open_gop=0 / weightp=2 / keyint=250 / keyint_min=25 / scenecut=0 / intra_refresh=0 / rc_lookahead=60 / rc=2pass / mbtree=1 / bitrate=2124 / ratetol=1.0 / qcomp=0.70 / qpmin=0 / qpmax=69 / qpstep=4 / cplxblur=15.0 / qblur=0.5 / vbv_maxrate=50000 / vbv_bufsize=62500 / nal_hrd=none / filler=0 / ip_ratio=1.40 / aq=2:1.00
Default : Yes
Forced : No
Audio #1
ID : 2
Format : AC-3
Format/Info : Audio Coding 3
Mode extension : CM (complete main)
Format settings, Endianness : Big
Codec ID : A_AC3
Duration : 1h 43mn
Bit rate mode : Constant
Bit rate : 448 Kbps
Channel(s) : 6 channels
Channel positions : Front: L C R, Side: L R, LFE
Sampling rate : 48.0 KHz
Bit depth : 16 bits
Compression mode : Lossy
Stream size : 331 MiB (15%)
Title : DVO
Language : Russian
Default : Yes
Forced : No
Audio #2
ID : 3
Format : AC-3
Format/Info : Audio Coding 3
Mode extension : CM (complete main)
Format settings, Endianness : Big
Codec ID : A_AC3
Duration : 1h 43mn
Bit rate mode : Constant
Bit rate : 448 Kbps
Channel(s) : 6 channels
Channel positions : Front: L C R, Side: L R, LFE
Sampling rate : 48.0 KHz
Bit depth : 16 bits
Compression mode : Lossy
Stream size : 331 MiB (15%)
Title : AVO
Language : Russian
Default : No
Forced : No
Text #1
ID : 4
Format : UTF-8
Codec ID : S_TEXT/UTF8
Codec ID/Info : UTF-8 Plain Text
Language : Russian
Default : Yes
Forced : No
Text #2
ID : 5
Format : UTF-8
Codec ID : S_TEXT/UTF8
Codec ID/Info : UTF-8 Plain Text
Language : English
Default : No
Forced : No

Скриншоты

Анаморфные скриншоты

Автор рипа: Bathory
[Профиль] [ЛС]
Показать сообщения:    

Текущее время: Сегодня 16:26

Часовой пояс: GMT



Вы не можете начинать темы
Вы не можете отвечать на сообщения
Вы не можете редактировать свои сообщения
Вы не можете удалять свои сообщения
Вы не можете голосовать в опросах
Вы не можете прикреплять файлы к сообщениям
Вы не можете скачивать файлы