Воскрешение Каина / Raising Cain (1992) BDRemux 1080p | А, Р2

 
Автор Сообщение

Russian Mafia ®

Пол:

Стаж: 1 год 8 месяцев

Сообщений: 4257



Награды: 10 (Подробнее)

Mega Seeder 2 (Количество: 1) Top Releaser 4 (Количество: 1) Mega Seeder 5 (Количество: 1)
Торрент-статистика

Создавать темы 12-Окт-2016 06:33

[Цитировать]

Воскрешение Каина / Raising Cain
Страна: США
Производство: Pacific Western
Год выпуска: 1992
Жанр: триллер, драма, криминал
Продолжительность: 01:31:32
Режиссер: Брайан Де Пальма
Автор сценария: Брайан Де Пальма
В ролях: Джон Литгоу, Лолита Давидович, Стивен Бауэр, Фрэнсис Стернхаген, Грегг Генри, Том Бауэр, Мел Харрис, Тери Остин, Бартон Хейман
Описание: Дженни Никс, жена выдающегося детского психолога Картера Никса, становится всё более обеспокоена навязчивой одержимостью мужа воспитанием их дочери. Её любовный роман на стороне, заставляет её пренебрегать собственными материнскими обязанностями, пока не начинается череда похищений детей в местном парке...

Перевод: Авторский (одноголосый) | А.Михалёв + Авторский (одноголосый) | В.Дохалов + Профессиональный (двухголосый)
Субтитры: русские, английские (BD + DVD)-Качество: BDRemux 1080p
Формат: МКV
Видео кодек: AVC
Аудио кодек: АС3| DTS
Видео: 1920x1080 (16:9), 23.976 fps, MPEG-4 AVC ~35.0 Мbps avg
Аудио №1: 48.0 kHz, AC3 Dolby Digital, 2/0 (L,R) ch, ~192 kbps | RUS / AVO / Алексей Михалёв
Аудио №2: 48.0 kHz, AC3 Dolby Digital, 2/0 (L,R) ch, ~192 kbps | RUS / AVO / Вартан Дохалов
Аудио №3: 48.0 kHz, AC3 Dolby Digital, 2/0 (L,R) ch, ~192 kbps | RUS / DVO
Аудио №4: 48.0 kHz, Digital Theater Systems Master Audio, 3/2 (L,C,R,l,r) + LFE ch, ~3840 kbps / 24-bit | ENG
Формат субтитров: UTF-8 Plain Text
Дата премьеры (мир): 7 августа 1992
Релиз от:

BDRemux Info

Уникальный идентификатор : 243016260107393570405504468682982836484 (0xB6D33AAEE86BB77186CBB15BCBF44904)
Полное имя : Raising.Cain.1992.BDRemux.1080p_by_vedigo.mkv
Формат : Matroska
Версия формата : Version 4 / Version 2
Размер файла : 24,5 Гбайт
Продолжительность : 1 ч. 31 м.
Общий поток : 38,4 Мбит/сек
Название фильма : Raising.Cain.1992.BDRemux.1080p_by_vedigo
Дата кодирования : UTC 2016-10-11 23:48:56
Программа кодирования : mkvmerge v9.4.2 ('So High') 64bit
Библиотека кодирования : libebml v1.3.4 + libmatroska v1.4.5
Видео
Идентификатор : 1
Формат : AVC
Формат/Информация : Advanced Video Codec
Профиль формата : High@L4.1
Параметр CABAC формата : Да
Параметр ReFrames формата : 4 кадра
Идентификатор кодека : V_MPEG4/ISO/AVC
Продолжительность : 1 ч. 31 м.
Вид битрейта : Постоянный
Битрейт : 35,0 Мбит/сек
Ширина : 1920 пикселей
Высота : 1080 пикселей
Соотношение сторон : 16:9
Режим частоты кадров : Постоянный
Частота кадров : 23,976 (24000/1001) кадра/сек
Цветовое пространство : YUV
Субдискретизация насыщенности : 4:2:0
Битовая глубина : 8 бит
Тип развёртки : Прогрессивная
Бит/(Пиксели*Кадры) : 0.704
Размер потока : 21,7 Гбайт (88%)
Заголовок : Raising.Cain.1992.BDRemux.1080p_by_vedigo
Default : Да
Forced : Нет
Аудио #1
Идентификатор : 2
Формат : AC-3
Формат/Информация : Audio Coding 3
Расширение режима : CM (complete main)
Параметр Endianness формата : Big
Идентификатор кодека : A_AC3
Продолжительность : 1 ч. 31 м.
Вид битрейта : Постоянный
Битрейт : 192 Кбит/сек
Каналы : 2 канала
Расположение каналов : Front: L R
Частота : 48,0 КГц
Частота кадров : 31,250 кадров/сек (1536 spf)
Метод сжатия : С потерями
Размер потока : 126 Мбайт (1%)
Заголовок : AVO @ А. Михалев
Язык : Russian
Default : Да
Forced : Нет
Аудио #2
Идентификатор : 3
Формат : AC-3
Формат/Информация : Audio Coding 3
Расширение режима : CM (complete main)
Параметр Endianness формата : Big
Идентификатор кодека : A_AC3
Продолжительность : 1 ч. 31 м.
Вид битрейта : Постоянный
Битрейт : 192 Кбит/сек
Каналы : 2 канала
Расположение каналов : Front: L R
Частота : 48,0 КГц
Частота кадров : 31,250 кадров/сек (1536 spf)
Метод сжатия : С потерями
Размер потока : 126 Мбайт (1%)
Заголовок : AVO @ В. Дохалов
Язык : Russian
Default : Нет
Forced : Нет
Аудио #3
Идентификатор : 4
Формат : AC-3
Формат/Информация : Audio Coding 3
Расширение режима : CM (complete main)
Параметр Endianness формата : Big
Идентификатор кодека : A_AC3
Продолжительность : 1 ч. 31 м.
Вид битрейта : Постоянный
Битрейт : 192 Кбит/сек
Каналы : 2 канала
Расположение каналов : Front: L R
Частота : 48,0 КГц
Частота кадров : 31,250 кадров/сек (1536 spf)
Метод сжатия : С потерями
Размер потока : 126 Мбайт (1%)
Заголовок : DVO
Язык : Russian
Default : Нет
Forced : Нет
Аудио #4
Идентификатор : 5
Формат : DTS
Формат/Информация : Digital Theater Systems
Профиль формата : MA / Core
Режим : 16
Параметр Endianness формата : Big
Идентификатор кодека : A_DTS
Продолжительность : 1 ч. 31 м.
Вид битрейта : Переменный / Постоянный
Битрейт : 3840 Кбит/сек / 1509 Кбит/сек
Каналы : 6 каналов
Расположение каналов : Front: L C R, Side: L R, LFE
Частота : 48,0 КГц
Частота кадров : 93,750 кадра/сек (512 spf)
Битовая глубина : 24 бит
Метод сжатия : Без потерь / Lossy
Размер потока : 2,49 Гбайт (10%)
Заголовок : Original
Язык : English
Default : Нет
Forced : Нет
Текст #1
Идентификатор : 6
Формат : UTF-8
Идентификатор кодека : S_TEXT/UTF8
Идентификатор кодека/Информация : UTF-8 Plain Text
Продолжительность : 1 ч. 25 м.
Битрейт : 84 бит/сек
Count of elements : 786
Размер потока : 53,1 Кбайт (0%)
Заголовок : Subtitle rus
Язык : Russian
Default : Нет
Forced : Нет
Текст #2
Идентификатор : 7
Формат : UTF-8
Идентификатор кодека : S_TEXT/UTF8
Идентификатор кодека/Информация : UTF-8 Plain Text
Продолжительность : 1 ч. 25 м.
Битрейт : 56 бит/сек
Count of elements : 1025
Размер потока : 35,5 Кбайт (0%)
Заголовок : Subtitle eng [BD ] Full
Язык : English
Default : Нет
Forced : Нет
Текст #3
Идентификатор : 8
Формат : UTF-8
Идентификатор кодека : S_TEXT/UTF8
Идентификатор кодека/Информация : UTF-8 Plain Text
Продолжительность : 1 ч. 25 м.
Битрейт : 50 бит/сек
Count of elements : 884
Размер потока : 31,4 Кбайт (0%)
Заголовок : Subtitle eng [DVD]
Язык : English
Default : Нет
Forced : Нет
Меню
00:00:00.000 : en:00:00:00.000
00:09:57.138 : en:00:09:57.138
00:17:44.563 : en:00:17:44.563
00:24:10.866 : en:00:24:10.866
00:32:55.307 : en:00:32:55.307
00:38:57.460 : en:00:38:57.460
00:46:17.274 : en:00:46:17.274
00:54:17.671 : en:00:54:17.671
01:03:34.978 : en:01:03:34.978
01:08:34.986 : en:01:08:34.986
01:15:45.583 : en:01:15:45.583
01:25:52.606 : en:01:25:52.606

Скриншоты

[Профиль] [ЛС]
Показать сообщения:    

Текущее время: Сегодня 08:03

Часовой пояс: GMT



Вы не можете начинать темы
Вы не можете отвечать на сообщения
Вы не можете редактировать свои сообщения
Вы не можете удалять свои сообщения
Вы не можете голосовать в опросах
Вы не можете прикреплять файлы к сообщениям
Вы не можете скачивать файлы