Воскресный вечер с Владимиром Соловьевым [17.08.2014, общественно-политический, DVB]

 
Автор Сообщение

sergej644 ®

Пол:

Стаж: 4 года 11 месяцев

Сообщений: 6041

Откуда: Soviet Union



Награды: Нет

Торрент-статистика

Создавать темы 17-Авг-2014 23:25

[Цитировать]

Воскресный вечер с Владимиром Соловьевым

Дата/Год выпуска: 17.08.2014
Страна: Россия
Жанр: общественно-политический
Продолжительность: 01:56:49
Перевод: Не требуется
Русские субтитры: нет
Оригинальная аудиодорожка: русский
Телеканал: Россия 1
Описание: Темы: Ялтинская конференция
качество: DVB
формат: TS/M2TS
Видео: MPEG-TS, AVC, Н264, 1898 Кбит/сек, 720х576, 4:3, 25,000 кадров/сек
Аудио: MPEG Audio, Version 1, Layer 2, 128 Кбит/сек, 2 канала, 48,0 КГц

MediaInfo

Формат : MPEG-TSРазмер файла : 1,74 ГбайтПродолжительность : 1 ч. 56 м.Режим общего битрейта : ПеременныйОбщий поток : 2133 Кбит/сек
ВидеоИдентификатор : 301 (0x12D)Идентификатор меню : 1 (0x1)Формат : AVCФормат/Информация : Advanced Video CodecПрофиль формата : Main@L3.0Параметр CABAC формата : ДаПараметр ReFrames формата : 3 кадраПараметр GOP формата : M=4, N=24Идентификатор кодека : 27Продолжительность : 1 ч. 56 м.Битрейт : 1898 Кбит/секШирина : 720 пикселейВысота : 576 пикселейСоотношение сторон : 4:3Частота кадров : 25,000 кадров/секСтандарт вещания : ComponentЦветовое пространство : YUVСубдискретизация насыщенности : 4:2:0Битовая глубина : 8 битТип развёртки : ПрогрессивнаяБит/(Пиксели*Кадры) : 0.183Размер потока : 1,55 Гбайт (89%)Основные цвета : BT.601 PALХарактеристики трансфера : BT.470 System B, BT.470 System GКоэффициенты матрицы : BT.601
АудиоИдентификатор : 302 (0x12E)Идентификатор меню : 1 (0x1)Формат : MPEG AudioВерсия формата : Version 1Профиль формата : Layer 2Идентификатор кодека : 3Продолжительность : 1 ч. 56 м.Вид битрейта : ПостоянныйБитрейт : 128 Кбит/секКаналы : 2 каналаЧастота : 48,0 КГцМетод сжатия : С потерямиРазмер потока : 107 Мбайт (6%)

Скриншоты

[Профиль] [ЛС]
Показать сообщения:    

Текущее время: Сегодня 08:32

Часовой пояс: GMT



Вы не можете начинать темы
Вы не можете отвечать на сообщения
Вы не можете редактировать свои сообщения
Вы не можете удалять свои сообщения
Вы не можете голосовать в опросах
Вы не можете прикреплять файлы к сообщениям
Вы не можете скачивать файлы