Восемь с половиной долларов (Григорий Константинопольский) [1999, Россия, криминальная комедия, DVD9]

 
Автор Сообщение

TorrentFilm ®

Пол:

Стаж: 2 года

Сообщений: 7741



Награды: Нет

Торрент-статистика

Создавать темы 01-Янв-2016 00:08

[Цитировать]

Восемь с половиной долларов
Страна: Россия
Студия: киностудия имени М. Горького, киностудия "Премьер Фильм"
Жанр: криминальная комедия
Год выпуска: 1999
Продолжительность: 01:35:08
Cубтитры: нет
Режиссер: Григорий Константинопольский
В ролях: Иван Охлобыстин, Фёдор Бондарчук, Олеся Поташинская, Владимир Меньшов, Наталья Андрейченко (озвучание - Рената Литвинова), Владимир Шаинский, Вячеслав Разбегаев, Игорь Верник, Ангелина Чернова, Армен Петросян, Рамиль Сабитов, Александр Аблязов, Леонилла Безобразова, Андрей И, Гоша Куценко, Сергей Улыбабов, Владимир Трубников, Екатерина Двигубская, Андрей Макаревич, Владимир Пресняков младший, Шура, Михаил Хлебородов, Роман Прыгунов, Григорий Константинопольский, Георгий Гаврилов, Евгений Митрофанов, Настя Михайловская, Илья Пиганов, Владимир Рожков, Сергей Глушко
Описание: Богемный режиссер рекламных роликов, известный донжуан Гера Кремов серьезно "попал". Однажды ночью Гера получает в руки коробку из-под принтера с 300 000 долларов. На эти деньги он должен снять кинематографический шедевр для мелкого, но опасного мафиози. К утру ситуация осложняется: выясняется, что в состоянии сильного алкогольного опьянения Гера случайно прокутил половину денег, к тому же девушка в его постели - возлюбленная того самого мелкого мафиози...
Доп. информация: Фильм представлен на диске в двух форматах - 2D и 3D.
Сценарий: Авдотья Смирнова, Сергей Крылов, Григорий Константинопольский
Операторы: Юрий Любшин, Евгений Корженков
Художник: Евгений Митта
Композиторы: Грув, Федор Чистяков
Ограничения на просмотр: зрителям, достигшим 16 лет

Бонусы: 3D-версия фильма (анаглиф)
Меню: есть, статичное, озвученное
Тип релиза: DVD9
Контейнер: DVD-Video
Видео: PAL 16:9 (720x576), Auto Pan&Scan (анаморф), 5189 Kbps, VBR
Аудио: Russian (Dolby AC3, 6 ch, 48 kHz, 448 kbps)

MediaInfo

Полное имя : Vosem s polovinoy dollarov\VIDEO_TS\VTS_02_1.VOB
Формат : MPEG-PS
Размер файла : 1024 Мбайт
Продолжительность : 24 м.
Режим общего битрейта : Переменный
Общий поток : 5751 Кбит/сек
Видео
Идентификатор : 224 (0xE0)
Формат : MPEG Video
Версия формата : Version 2
Профиль формата : Main@Main
Параметр BVOP формата : Да
Параметр матрицы формата : Выборочная
Продолжительность : 24 м.
Вид битрейта : Переменный
Битрейт : 5189 Кбит/сек
Максимальный битрейт : 8500 Кбит/сек
Ширина : 720 пикселей
Высота : 576 пикселей
Соотношение сторон : 16:9
Частота кадров : 25,000 кадров/сек
Стандарт вещания : PAL
Цветовое пространство : YUV
Субдискретизация насыщенности : 4:2:0
Битовая глубина : 8 бит
Тип развёртки : Прогрессивная
Метод сжатия : С потерями
Бит/(Пиксели*Кадры) : 0.500
Размер потока : 924 Мбайт (90%)
Аудио
Идентификатор : 189 (0xBD)-128 (0x80)
Формат : AC-3
Формат/Информация : Audio Coding 3
Расширение режима : CM (complete main)
Параметр Endianness формата : Big
Режим смешивания : DVD-Video
Продолжительность : 24 м.
Вид битрейта : Постоянный
Битрейт : 448 Кбит/сек
Каналы : 6 каналов
Расположение каналов : Front: L C R, Side: L R, LFE
Частота : 48,0 КГц
Битовая глубина : 16 бит
Метод сжатия : С потерями
Размер потока : 79,7 Мбайт (8%)

DVDInfo

Title:
Size: 7.73 Gb ( 8 103 388 KBytes ) - DVD-9
Enabled regions: 1, 2, 3, 4, 5, 6, 7, 8
VTS_01 :
Play Length: 00:00:21
Video: PAL 16:9 (720x576) VBR, Auto Pan&Scan
Audio:
Russian (Dolby AC3, 2 ch)
VTS_02 :
Play Length: 01:35:08
Video: PAL 16:9 (720x576) VBR, Auto Pan&Scan
Audio:
Russian (Dolby AC3, 6 ch)
VTS_03 :
Play Length: 01:35:08
Video: PAL 16:9 (720x576) VBR, Auto Pan&Scan
Audio:
Russian (Dolby AC3, 6 ch)
Menu Video:
PAL 16:9 (720x576) VBR
Auto Pan&Scan
Menu Audio:
Not specified (Dolby AC3, 2 ch)
Menu Subtitles:
Not specified
Menu Russian Language Unit :
Root Menu
Chapter (PTT) Menu

Скриншоты меню

Скриншоты 2D (без учета анаморфа)

Скриншоты 3D (без учета анаморфа)

Сканы обложки и диска

[Профиль] [ЛС]
Показать сообщения:    

Текущее время: Сегодня 10:00

Часовой пояс: GMT



Вы не можете начинать темы
Вы не можете отвечать на сообщения
Вы не можете редактировать свои сообщения
Вы не можете удалять свои сообщения
Вы не можете голосовать в опросах
Вы не можете прикреплять файлы к сообщениям
Вы не можете скачивать файлы