Восемь баскских фамилий / Ocho apellidos vascos (Эмилио Мартинес Ласаро / Emilio Martínez Lázaro) [2014 г., Испания, Комедия, BDRip 720p] AVO + Original Esp + Sub (Esp, Eng)

 
Автор Сообщение

sergej644 ®

Пол:

Стаж: 4 года 11 месяцев

Сообщений: 6035

Откуда: Soviet Union



Награды: Нет

Торрент-статистика

Создавать темы 06-Авг-2014 12:12

[Цитировать]

--Восемь баскских фамилий / Ocho apellidos vascos
Год выпуска: 2014
Страна: Испания
Студия: Lazonafilms, Kowalski Films, Telecinco Cinema
Жанр: Комедия
Продолжительность: 01:39:13
Перевод: Авторский (одноголосый закадровый, Антон Алексеев)
Русские субтитры: нет
Режиссер: Эмилио Мартинес Ласаро / Emilio Martínez Lázaro
В ролях: Клара Лаго, Дэни Ровира, Кармен Мачи, Карра Элехальде, Альберто Лопес, Альфонсо Санчес, Айтор Масо, Абель Мора, Мириам Кабеса
Описание: Картина рассказывает о странствиях Рафа, андалузца чистой виноградной лозы, который никогда не покидал своей родной и любимой Севильи, так как она давала ему все, что нужно для жизни – хорошее вино, гель для волос и женщин. В один прекрасный день жизнь Рафа меняется, после того, как он встречает первую женщину, устоявшую перед его обаянием – басконку Амайю. Чтобы завоевать ее, Рафа совершает путешествие в Страну Басков, чтобы доказать прекрасной девушке, что он в душе настоящий баск и достоин ее любви.
-Качество: BDRip 720p
Формат: MKV
Видео кодек: MPEG4 AVC
Аудио кодек: AC3
Видео: 1280x690, 16:9, 23.976 fps, ~6092 kbps
Аудио №1: Русский Dolby Digital Audio 5.1, 48 kHz, 16 bit, ~640 kbps – профессиональный (одноголосый закадровый) |Антон Алексеев|
Аудио №2: Испанский Dolby Digital Audio 5.1, 48 kHz, 16 bit, ~640 kbps
Субтитры: Испанские, английские-

Информация

  • Источник: Ocho apellidos vascos 2014 1080p Blu-ray AVC DTS-HD MA 5 1-TayTO
  • Encode от LolHD!
  • Сохранены оригинальные чаптеры как на Blu-ray.
  • Дорожка №1 получена наложением чистого голоса на центр декодированного DTS-HD MA, за что большое спасибо ilgizik01.
  • Перевод А. Алексеева доступен благодаря пользователям ilgizik01 и xerman13

Сэмпл

Скриншоты


MediaInfo

General
Unique ID : 170189003499215365576120226832870507940 (0x800935B5BEAE56259441AC0D1BD785A4)
Complete name : Ocho apellidos vascos [Восемь баскских фамилий].mkv
Format : Matroska
Format version : Version 4 / Version 2
File size : 5.20 GiB
Duration : 1h 39mn
Overall bit rate : 7 509 Kbps
Encoded date : UTC 2014-08-03 19:27:13
Writing application : mkvmerge v6.9.1 ('Blue Panther') 64bit built on Apr 18 2014 18:23:38
Writing library : libebml v1.3.0 + libmatroska v1.4.1
Video
ID : 1
Format : AVC
Format/Info : Advanced Video Codec
Format profile : High@L4.1
Format settings, CABAC : Yes
Format settings, ReFrames : 9 frames
Codec ID : V_MPEG4/ISO/AVC
Duration : 1h 39mn
Bit rate : 6 079 Kbps
Width : 1 280 pixels
Height : 690 pixels
Display aspect ratio : 1.85:1
Frame rate mode : Constant
Frame rate : 23.976 fps
Color space : YUV
Chroma subsampling : 4:2:0
Bit depth : 8 bits
Scan type : Progressive
Bits/(Pixel*Frame) : 0.287
Stream size : 4.21 GiB (81%)
Writing library : x264 core 142 r2431kMod ac76440
Encoding settings : cabac=1 / ref=9 / deblock=1:-3:-3 / analyse=0x3:0x133 / me=umh / subme=10 / psy=1 / fade_compensate=0.00 / psy_rd=1.08:0.00 / mixed_ref=1 / me_range=48 / chroma_me=1 / trellis=2 / 8x8dct=1 / cqm=0 / deadzone=21,11 / fast_pskip=0 / chroma_qp_offset=-2 / threads=6 / lookahead_threads=1 / sliced_threads=0 / nr=0 / decimate=0 / interlaced=0 / bluray_compat=0 / constrained_intra=0 / fgo=0 / bframes=10 / b_pyramid=2 / b_adapt=2 / b_bias=0 / direct=3 / weightb=1 / open_gop=0 / weightp=2 / keyint=250 / keyint_min=23 / scenecut=40 / intra_refresh=0 / rc_lookahead=60 / rc=crf / mbtree=0 / crf=14.8000 / qcomp=0.70 / qpmin=0 / qpmax=69 / qpstep=4 / vbv_maxrate=38000 / vbv_bufsize=30000 / crf_max=0.0 / nal_hrd=none / filler=0 / ip_ratio=1.17 / pb_ratio=1.12 / aq=1:0.68 / zones=137882,142727,b=0.2
Default : No
Forced : No
Color primaries : BT.709
Transfer characteristics : BT.709
Matrix coefficients : BT.709
Audio #1
ID : 2
Format : AC-3
Format/Info : Audio Coding 3
Mode extension : CM (complete main)
Format settings, Endianness : Big
Codec ID : A_AC3
Duration : 1h 39mn
Bit rate mode : Constant
Bit rate : 640 Kbps
Channel(s) : 6 channels
Channel positions : Front: L C R, Side: L R, LFE
Sampling rate : 48.0 KHz
Bit depth : 16 bits
Compression mode : Lossy
Stream size : 454 MiB (9%)
Language : Russian
Default : Yes
Forced : No
Audio #2
ID : 3
Format : AC-3
Format/Info : Audio Coding 3
Mode extension : CM (complete main)
Format settings, Endianness : Big
Codec ID : A_AC3
Duration : 1h 39mn
Bit rate mode : Constant
Bit rate : 640 Kbps
Channel(s) : 6 channels
Channel positions : Front: L C R, Side: L R, LFE
Sampling rate : 48.0 KHz
Bit depth : 16 bits
Compression mode : Lossy
Stream size : 454 MiB (9%)
Language : Spanish
Default : No
Forced : No
Text #1
ID : 4
Format : UTF-8
Codec ID : S_TEXT/UTF8
Codec ID/Info : UTF-8 Plain Text
Language : English
Default : No
Forced : No
Text #2
ID : 5
Format : UTF-8
Codec ID : S_TEXT/UTF8
Codec ID/Info : UTF-8 Plain Text
Language : Spanish
Default : No
Forced : No
Menu
00:00:00.000 : en:00:00:00.000
00:07:09.179 : en:00:07:09.179
00:11:58.343 : en:00:11:58.343
00:17:00.937 : en:00:17:00.937
00:23:22.484 : en:00:23:22.484
00:30:35.667 : en:00:30:35.667
00:36:41.783 : en:00:36:41.783
00:41:02.418 : en:00:41:02.418
00:47:56.499 : en:00:47:56.499
00:53:07.768 : en:00:53:07.768
01:00:32.087 : en:01:00:32.087
01:07:36.511 : en:01:07:36.511
01:14:38.683 : en:01:14:38.683
01:19:02.696 : en:01:19:02.696
01:27:20.694 : en:01:27:20.694
01:35:43.905 : en:01:35:43.905

-
Релиз
[Профиль] [ЛС]
Показать сообщения:    

Текущее время: Сегодня 22:33

Часовой пояс: GMT



Вы не можете начинать темы
Вы не можете отвечать на сообщения
Вы не можете редактировать свои сообщения
Вы не можете удалять свои сообщения
Вы не можете голосовать в опросах
Вы не можете прикреплять файлы к сообщениям
Вы не можете скачивать файлы