Вор (1997) DVDRip-AVC

 
Автор Сообщение

Russian Mafia ®

Пол:

Стаж: 1 год 8 месяцев

Сообщений: 4257



Награды: 10 (Подробнее)

Top Releaser 5 (Количество: 1) Mega Seeder 1 (Количество: 1) Mega Seeder 3 (Количество: 1)
Торрент-статистика

Создавать темы 08-Сен-2015 09:23

[Цитировать]

| Вор |Информация о фильме
Название: Вор
Год выхода: 1997
Жанр: драма
Режиссер: Павел Чухрай
В ролях: Владимир Машков, Екатерина Редникова, Миша Филипчук, Дима Чигарев, Юрий Беляев, Амалия Мордвинова, Лидия Савченко, Анатолий Кощеев, Аня Штукатурова, Ерванд Арзуманян, Наталья Позднякова, Ольга Пашкова, Людмила Селянская, Галина Петрова, Виктор Бунаков
О фильме:
Действие картины разворачивается в двух эпохах – в послевоенное и в наше время. Главный герой фильма – сначала ребёнок, потом – взрослый человек, военный. В 1952 году шестилетний Саня и его мать Катерина едут в поезде. Их случайный попутчик, офицер Анатолий, очаровывает и Катю, и Саню. Катя и Анатолий решают жить вместе. Сильный и добродушный Толян почти заменяет безотцовщине Сане отца. Он учит мальчика стоять за себя, вести себя по-мужски – так, как сам понимает мужественность и в соответствии с теми правилами, по которым живёт. Но правила эти – правила “зоны”. И вскоре выясняется, что Толян – вовсе не демобилизованный офицер, а профессиональный вор. Отныне в мальчике борются любовь и отвращение, вспышки ненависти и привязанность к этому безусловно обаятельному и совершенно аморальному человеку…

Страна: Россия, Франция
Студия: Canal+ [fr], Centre National de la Cinematographie (CNC), Госкино, НТВ-Профит, Productions Le Pont, Roissy Films
Продолжительность: 01:33:45
Перевод: Не требуется
Файл
Кодек: h.264
Качество: DVDRip-AVC
Видео: 3057 Кбит/с, 696х572@740x572, 25.000 кадр/с
Звук: АС3, 6 ch, 384 Кбит/с
Субтитры: Русские

MediaInfo

Полное имя : Vor.1997.x264.DVDRip-AVC.0ptimus.mkv
Формат : Matroska
Версия формата : Version 2
Размер файла : 2,25 Гбайт
Продолжительность : 1 ч. 33 м.
Общий поток : 3443 Кбит/сек
Название фильма : Вор [1997] -= DVDRip (AVC) by 0ptimus =-
Дата кодирования : UTC 2015-01-31 11:41:34
Программа кодирования : mkvmerge v6.6.0 ('The Edge Of The In Between') built on Dec 1 2013 17:55:00
Библиотека кодирования : libebml v1.3.0 + libmatroska v1.4.1
Видео
Идентификатор : 1
Формат : AVC
Формат/Информация : Advanced Video Codec
Профиль формата : High@L4.1
Параметр CABAC формата : Да
Параметр ReFrames формата : 9 кадров
Идентификатор кодека : V_MPEG4/ISO/AVC
Продолжительность : 1 ч. 33 м.
Битрейт : 3057 Кбит/сек
Ширина : 696 пикселей
Высота : 572 пикселя
Соотношение сторон : 1,294
Режим частоты кадров : Постоянный
Частота кадров : 25,000 кадров/сек
Цветовое пространство : YUV
Субдискретизация насыщенности : 4:2:0
Битовая глубина : 8 бит
Тип развёртки : Прогрессивная
Бит/(Пиксели*Кадры) : 0.307
Размер потока : 1,96 Гбайт (87%)
Заголовок : Rip by 0ptimus
Библиотека кодирования : x264 core 133 r2334 a3ac64b
Настройки программы : cabac=1 / ref=9 / deblock=1:-2:-1 / analyse=0x3:0x113 / me=umh / subme=11 / psy=1 / psy_rd=1.05:0.25 / mixed_ref=1 / me_range=48 / chroma_me=1 / trellis=2 / 8x8dct=1 / cqm=0 / deadzone=21,11 / fast_pskip=0 / chroma_qp_offset=-4 / threads=3 / lookahead_threads=1 / sliced_threads=0 / nr=0 / decimate=0 / interlaced=0 / bluray_compat=0 / constrained_intra=0 / bframes=11 / b_pyramid=2 / b_adapt=2 / b_bias=0 / direct=3 / weightb=1 / open_gop=0 / weightp=2 / keyint=250 / keyint_min=25 / scenecut=40 / intra_refresh=0 / rc_lookahead=50 / rc=2pass / mbtree=1 / bitrate=3057 / ratetol=1.0 / qcomp=0.60 / qpmin=0 / qpmax=69 / qpstep=4 / cplxblur=20.0 / qblur=0.5 / vbv_maxrate=50000 / vbv_bufsize=50000 / nal_hrd=none / ip_ratio=1.40 / aq=1:1.00
Язык : Russian
Default : Да
Forced : Да
Аудио
Идентификатор : 2
Формат : AC-3
Формат/Информация : Audio Coding 3
Расширение режима : CM (complete main)
Параметр Endianness формата : Big
Идентификатор кодека : A_AC3
Продолжительность : 1 ч. 33 м.
Вид битрейта : Постоянный
Битрейт : 384 Кбит/сек
Каналы : 6 каналов
Расположение каналов : Front: L C R, Side: L R, LFE
Частота : 48,0 КГц
Битовая глубина : 16 бит
Метод сжатия : С потерями
Размер потока : 258 Мбайт (11%)
Заголовок : AC3 5.1 @ 384 kbps
Язык : Russian
Default : Да
Forced : Да
Текст
Идентификатор : 3
Формат : UTF-8
Идентификатор кодека : S_TEXT/UTF8
Идентификатор кодека/Информация : UTF-8 Plain Text
Язык : Russian
Default : Нет
Forced : Нет
Меню
00:00:00.000 : :Chapter 01
00:00:58.200 : :Chapter 02
00:07:25.200 : :Chapter 03
00:11:48.600 : :Chapter 04
00:16:22.200 : :Chapter 05
00:20:40.200 : :Chapter 06
00:25:34.800 : :Chapter 07
00:30:48.000 : :Chapter 08
00:37:03.600 : :Chapter 09
00:42:10.800 : :Chapter 10
00:48:28.800 : :Chapter 11
00:53:23.400 : :Chapter 12
00:58:51.000 : :Chapter 13
01:03:31.200 : :Chapter 14
01:08:33.600 : :Chapter 15
01:12:32.400 : :Chapter 16
01:16:30.600 : :Chapter 17
01:20:12.000 : :Chapter 18
01:26:10.200 : :Chapter 19

Скриншоты



[Профиль] [ЛС]
Кто просматривает тему:

Форум Тема Автор Размер
Фильмы до 2012 года Вор (1997) DVDRip sergej644 2 GB
Кино СССР Мужской разговор (1968) DVDRip-AVC sergej644 1.77 GB
Показать сообщения:    

Текущее время: Сегодня 00:34

Часовой пояс: GMT



Вы не можете начинать темы
Вы не можете отвечать на сообщения
Вы не можете редактировать свои сообщения
Вы не можете удалять свои сообщения
Вы не можете голосовать в опросах
Вы не можете прикреплять файлы к сообщениям
Вы не можете скачивать файлы