Вор (1997) DVDRip

 
Автор Сообщение

sergej644 ®

Пол:

Стаж: 4 года 11 месяцев

Сообщений: 6045

Откуда: Soviet Union



Награды: Нет

Торрент-статистика

Создавать темы 15-Авг-2014 16:07

[Цитировать]

-
Вор
«He is not the one he pretends...»
Год выпуска: 1997
Страна: Россия , Франция
Жанр: драма
Продолжительность: 01:33:45
Перевод: Оригинал
Режиссер: Павел Чухрай
Сценарий: Павел Чухрай
Продюсер: Игорь Бортников, Игорь Толстунов, Сергей Козлов
Оператор: Владимир Климов
Композитор : Владимир Дашкевич
Художник: Виктор Петров, Наталья Александрова, Наталья Монева
Монтаж: Марина Добрянская, Наталья Кучеренко
В ролях: Владимир Машков (Толян), Екатерина Редникова (Катя), Михаил Филипчук (Саня), Амалия Мордвинова (докторша), Лидия Савченко (баба Таня), Анна Штукатурова (девочка-хромоножка), Ольга Пашкова (артистка), Юрий Беляев (Саня, 48 лет)

Описание: Осенью 1952 года шестилетний Санька и его молодая мама знакомятся в поезде с красавцем военным по имени Толян. Катя влюбляется в Толяна, и все вместе они начинают жить одной семьей. Но на поверку этот бравый и обаятельный офицер оказывается вовсе не отставным военным, а профессиональным вором…
СЭМПЛ
Бюджет: $2 000 000
Сборы в США: $1 126 115
Зрители: США 239.8 тыс. , Испания 47 тыс. , Италия 23.3 тыс.
Премьера (мир): 31 августа 1997
Премьера (РФ): 13 октября 1997, «НТВ-Профит»
Рейтинг MPAA: Лицам до 17 лет обязательно присутствие взрослого

Качество: DVDRip
Формат: AVI
Видео кодек: XviD
Аудио кодек: AC3
Видео: 704x544 (1.294:1), 25.000 fps, XviD, 2 391 Kbps
Аудио: Аудио #1: AC3, 448 Kbps, 48.0 KHz, 6 ch
Аудио #2: AC3, 192 Kbps, 48.0 KHz, 2 ch

МедиаИнфо

General
Complete name                    : Vor.1997.avi
Format                           : AVI
Format/Info                      : Audio Video Interleave
Format profile                   : OpenDML
File size                        : 2.00 GiB
Duration                         : 1h 33mn
Overall bit rate                 : 3 050 Kbps
Director                         : zim2001
Writing application              : VirtualDubMod 1.5.10.2 (build 2540/release)
Copyright                        :  .org
Video
ID                               : 0
Format                           : MPEG-4 Visual
Format profile                   : Advanced Simple@L5
Format settings, BVOP            : Yes
Format settings, QPel            : No
Format settings, GMC             : No warppoints
Format settings, Matrix          : Custom
Codec ID                         : XVID
Codec ID/Hint                    : XviD
Duration                         : 1h 33mn
Bit rate                         : 2 391 Kbps
Width                            : 704 pixels
Height                           : 544 pixels
Display aspect ratio             : 1.294
Frame rate                       : 25.000 fps
Color space                      : YUV
Chroma subsampling               : 4:2:0
Bit depth                        : 8 bits
Scan type                        : Progressive
Bits/(Pixel*Frame)               : 0.250
Stream size                      : 1.57 GiB (78%)
Writing library                  : XviD 1.2.1 (UTC 2008-12-04)
Audio #1
ID                               : 1
Format                           : AC-3
Format/Info                      : Audio Coding 3
Mode extension                   : CM (complete main)
Codec ID                         : 2000
Duration                         : 1h 33mn
Bit rate mode                    : Constant
Bit rate                         : 448 Kbps
Channel(s)                       : 6 channels
Channel positions                : Front: L C R, Side: L R, LFE
Sampling rate                    : 48.0 KHz
Bit depth                        : 16 bits
Stream size                      : 300 MiB (15%)
Alignment                        : Split accross interleaves
Interleave, duration             : 40 ms (1.00 video frame)
Interleave, preload duration     : 500 ms
Audio #2
ID                               : 2
Format                           : AC-3
Format/Info                      : Audio Coding 3
Mode extension                   : CM (complete main)
Codec ID                         : 2000
Duration                         : 1h 33mn
Bit rate mode                    : Constant
Bit rate                         : 192 Kbps
Channel(s)                       : 2 channels
Channel positions                : Front: L R
Sampling rate                    : 48.0 KHz
Bit depth                        : 16 bits
Stream size                      : 129 MiB (6%)
Alignment                        : Split accross interleaves
Interleave, duration             : 40 ms (1.00 video frame)
Interleave, preload duration     : 500 ms

скриншоты

Время раздачи: с 09:00 до 23:30,
[Профиль] [ЛС]

Создавать темы 06-Авг-2015 22:17 (спустя 11 месяцев 22 дня)

Топик был перенесен из форума Фильмы до 2014 года в форум Фильмы до 2012 года
sergej644
 
Кто просматривает тему:

Форум Тема Автор Размер
Кино СССР Вор (1997) DVDRip-AVC Russian Mafia 2.25 GB
Кино СССР Мужской разговор (1968) DVDRip-AVC sergej644 1.77 GB
Показать сообщения:    

Текущее время: Сегодня 11:52

Часовой пояс: GMT



Вы не можете начинать темы
Вы не можете отвечать на сообщения
Вы не можете редактировать свои сообщения
Вы не можете удалять свои сообщения
Вы не можете голосовать в опросах
Вы не можете прикреплять файлы к сообщениям
Вы не можете скачивать файлы