Ворошиловский стрелок (1999) WEBRip-AVC от ExKinoRay

 
Автор Сообщение

DOMINION ®

Пол:

Стаж: 1 месяц 26 дней

Сообщений: 564



Награды: 2 (Подробнее)

За внесенный вклад в развитие сайта (Количество: 1) Друг (Количество: 1)
Торрент-статистика

Создавать темы 08-Ноя-2018 06:11

[Цитировать]

Информация о фильме
Название: Ворошиловский стрелок
Год выхода: 1999
Жанр: Драма, криминал
Режиссер: Станислав Говорухин
В ролях: Михаил Ульянов, Анна Синякина, Александр Пороховщиков, Сергей Гармаш, Ирина Розанова, Марат Башаров, Илья Древнов, Алексей Макаров, Владислав Галкин, Георгий Мартиросян, Сергей Апрельский, Алексей Шевченков, Владимир Семаго, Павел Савчук, Владимир Романовский, Олег Хатюшенко, Вячеслав Голоднов, Алексей Гольцов, Анна Портная, Роза Якимова, Олег Комаров, Павел Фетисов, Магомед Льянов, Карен Мурадян
О фильме :
Пенсионер, железнодорожник в отставке, скромно живёт со своей внучкой Катей. В соседнем доме постоянно собираются трое молодых бездельников, чувствующие себя хозяевами жизни. Однажды они хитростью заманили Катю к себе, где изнасиловали. Поначалу насильников арестовывают, однако, отец одного из них — большой милицейский начальник — освобождает их. После безуспешных попыток наказать преступников законным путём Иван Фёдорович посчитал своим долгом восстановить справедливость сам…

Страна: Россия, НТВ-Профит
Продолжительность: 01:34:23
Язык: Русский
Файл
Формат: MKV
Качество: WEBRip-AVC
Видео: MPEG-4 AVC, 720x536, - 1028 Кбит/с
Аудио: AAC-HE, 2 ch, - 76 Кбит/с

MI

Общее
Уникальный идентификатор : 187114491147222616941706946591154175071 (0x8CC4F0ADDCA3ADA8BCC4AF236A7EFC5F)
Полное имя : D:MOVIESVoroshilovskiy.strelok.1999.ExKinoRay.mkv
Формат : Matroska
Версия формата : Version 4 / Version 2
Размер файла : 747 Мбайт
Продолжительность : 1 ч. 34 м.
Общий поток : 1106 Кбит/сек
Дата кодирования : UTC 2018-11-08 04:30:48
Программа кодирования : mkvmerge v15.0.0 ('Duel with the Devil') 64-bit
Библиотека кодирования : libebml v1.3.5 + libmatroska v1.4.5
Видео
Идентификатор : 1
Формат : AVC
Формат/Информация : Advanced Video Codec
Профиль формата : High@L4.1
Параметр CABAC формата : Да
Параметр RefFrames формата : 12 кадров
Идентификатор кодека : V_MPEG4/ISO/AVC
Продолжительность : 1 ч. 34 м.
Битрейт : 1028 Кбит/сек
Ширина : 720 пикселей
Высота : 536 пикселей
Соотношение сторон : 4:3
Режим частоты кадров : Постоянный
Частота кадров : 25,000 кадров/сек
Цветовое пространство : YUV
Субдискретизация насыщенности : 4:2:0
Битовая глубина : 8 бит
Тип развёртки : Прогрессивная
Бит/(Пиксели*Кадры) : 0.107
Размер потока : 694 Мбайт (93%)
Библиотека кодирования : x264 core 152 r2851kMod ba24899
Настройки программы : cabac=1 / ref=12 / deblock=1:-2:-2 / analyse=0x3:0x133 / me=umh / subme=10 / psy=1 / fade_compensate=0.00 / psy_rd=1.00:0.15 / mixed_ref=1 / me_range=32 / chroma_me=1 / trellis=2 / 8x8dct=1 / cqm=0 / deadzone=21,11 / fast_pskip=0 / chroma_qp_offset=-3 / threads=6 / lookahead_threads=1 / sliced_threads=0 / nr=0 / decimate=0 / interlaced=0 / bluray_compat=0 / constrained_intra=0 / bframes=11 / b_pyramid=2 / b_adapt=2 / b_bias=0 / direct=3 / weightb=1 / open_gop=0 / weightp=2 / keyint=250 / keyint_min=24 / scenecut=40 / intra_refresh=0 / rc_lookahead=40 / rc=2pass / mbtree=1 / bitrate=1028 / ratetol=1.0 / qcomp=0.60 / qpmin=0 / qpmax=69 / qpstep=4 / cplxblur=20.0 / qblur=0.5 / ip_ratio=1.40 / aq=3:1.00
Default : Да
Forced : Нет
Аудио
Идентификатор : 2
Формат : AAC
Формат/Информация : Advanced Audio Codec
Профиль формата : HE-AAC / LC
Идентификатор кодека : A_AAC
Продолжительность : 1 ч. 34 м.
Битрейт : 76,0 Кбит/сек
Каналы : 2 канала
Расположение каналов : Front: L R
Частота : 48,0 КГц / 24,0 КГц
Частота кадров : 23,438 кадра/сек (1024 SPF)
Метод сжатия : С потерями
Задержка видео : 31 мс.
Размер потока : 51,3 Мбайт (7%)
Default : Да
Forced : Нет

Скриншоты

[Профиль] [ЛС]
Кто просматривает тему:

Показать сообщения:    

Текущее время: Сегодня 10:06

Часовой пояс: GMT



Вы не можете начинать темы
Вы не можете отвечать на сообщения
Вы не можете редактировать свои сообщения
Вы не можете удалять свои сообщения
Вы не можете голосовать в опросах
Вы не можете прикреплять файлы к сообщениям
Вы не можете скачивать файлы