Ворон 3: Спасение / The Crow: Salvation (2000) HDRip от Шкипер | P

 
Автор Сообщение

Шкипер ®

Пол:

Стаж: 1 год 7 месяцев

Сообщений: 52



Награды: Нет

Торрент-статистика

Создавать темы 10-Авг-2016 18:32

[Цитировать]

Информация о фильме
Название: Ворон 3: Спасение
Оригинальное название: The Crow: Salvation
Год выхода: 2000
Жанр: Фэнтези, боевик, триллер, криминал, детектив
Режиссер: Бхарат Наллури
В ролях: Кирстен Данст, Эрик Мэбиас, Фред Уорд, Джоди Лин О’Киф, Уильям Этертон, К.С. Клайд, Дэбби Фэн, Гэбриэлль Вудс, Дэйл Мидкифф, Дэвид Стивенс
О фильме: После смерти на электрическом стуле в ночь своего совершеннолетия, Алекс смог вернуться оттуда, откуда нет дороги. В облике неуязвимого Ворона он пришел в этот мир, чтобы отомстить убийце своей девушки и жестоким полицейским, покрывающим кровавого маньяка.

Страна: Германия, США
Студия: Edward R. Pressman Film Corporation, Jeff Most Productions, Pacifica Film Distribution
Продолжительность: 01:42:08
Перевод: Профессиональный (многоголосый, закадровый) CTC
Файл
Кодек: XviD
Качество: HDRip
Видео: 688x368 (1.85:1), 23.976 fps, XviD build 73 ~1716 kbps avg, 0.28 bit/pixel
Звук: 48 kHz, AC3 Dolby Digital, 2/0 (L,R) ch, ~192 kbps
Субтитры: Отсутствуют
Семпл

MI

General
Complete name : D:Изготовление рипаThe.Crow.Salvation.2000.HDRip.by shkiper.avi
Format : AVI
Format/Info : Audio Video Interleave
File size : 1.37 GiB
Duration : 1h 42mn
Overall bit rate : 1 918 Kbps
Writing application : VirtualDubMod 1.5.10.3 | www.virtualdub-fr.org || (build 2550/release)
Writing library : VirtualDubMod build 2550/release
Video
ID : 0
Format : MPEG-4 Visual
Format profile : Advanced Simple@L5
Format settings, BVOP : 1
Format settings, QPel : No
Format settings, GMC : No warppoints
Format settings, Matrix : Custom
Codec ID : XVID
Codec ID/Hint : XviD
Duration : 1h 42mn
Bit rate : 1 716 Kbps
Width : 688 pixels
Height : 368 pixels
Display aspect ratio : 1.85:1
Frame rate : 23.976 (23976/1000) fps
Color space : YUV
Chroma subsampling : 4:2:0
Bit depth : 8 bits
Scan type : Progressive
Compression mode : Lossy
Bits/(Pixel*Frame) : 0.283
Stream size : 1.22 GiB (89%)
Writing library : XviD 73
Audio
ID : 1
Format : AC-3
Format/Info : Audio Coding 3
Mode extension : CM (complete main)
Format settings, Endianness : Big
Codec ID : 2000
Duration : 1h 42mn
Bit rate mode : Constant
Bit rate : 192 Kbps
Channel(s) : 2 channels
Channel positions : Front: L R
Sampling rate : 48.0 KHz
Frame rate : 31.250 fps (1536 spf)
Compression mode : Lossy
Stream size : 140 MiB (10%)
Alignment : Split accross interleaves
Interleave, duration : 42 ms (1.00 video frame)
Interleave, preload duratio : 500 ms

Скриншоты

Релиз от:
[Профиль] [ЛС]
Показать сообщения:    

Текущее время: Сегодня 02:17

Часовой пояс: GMT



Вы не можете начинать темы
Вы не можете отвечать на сообщения
Вы не можете редактировать свои сообщения
Вы не можете удалять свои сообщения
Вы не можете голосовать в опросах
Вы не можете прикреплять файлы к сообщениям
Вы не можете скачивать файлы