Ворона и лиса (Дмитрий Шестопалов) [2009, рисованный мультфильм, WEBRip]

 
Автор Сообщение

TorrentFilm ®

Пол:

Стаж: 2 года

Сообщений: 7741



Награды: Нет

Торрент-статистика

Создавать темы 06-Июн-2015 00:04

[Цитировать]

Ворона и лиса
Страна: Россия
Производство: СПбГУКиТ
Жанр: рисованный мультфильм
Продолжительность: 00:04:38
Год выпуска: 2009
Русские субтитры: нет
Режиссёр: Дмитрий Шестопалов
Описание: Мультфильм - режиссерский дебют Дмитрия Шестопалова. Современная интерпретация басни Ивана Андреевича Крылова.
Доп. информация: Фильм участвовал в конкурсной программе фестиваля Суздаль-2011.
Участник фестиваля Золотая рыбка—2010.

Качество: WEBRip
Формат: AVI
Видео: 640x480 (1.33:1), 25 fps, XviD MPEG-4 ~1880 kbps avg, 0.245 bit/pixel
Аудио: 44.1 kHz, MPEG Layer 3, 2 ch, ~192.00 kbps avg
Субтитры: Отсутствуют

Подробные технические данные

GeneralComplete name : E:\1\мультики\Ворона и лиса 2009.aviFormat : AVIFormat/Info : Audio Video InterleaveFile size : 69.1 MiBDuration : 4mn 38sOverall bit rate : 2 082 KbpsWriting application : VirtualDubMod 1.5.10.3 | www.virtualdub-fr.org || (build 2550/release)Writing library : VirtualDubMod build 2550/release
VideoID : 0Format : MPEG-4 VisualFormat profile : Advanced Simple@L5Format settings, BVOP : NoFormat settings, QPel : NoFormat settings, GMC : No warppointsFormat settings, Matrix : Default (H.263)Codec ID : XVIDCodec ID/Hint : XviDDuration : 4mn 38sBit rate : 1 880 KbpsWidth : 640 pixelsHeight : 480 pixelsDisplay aspect ratio : 4:3Frame rate : 25.000 fpsColor space : YUVChroma subsampling : 4:2:0Bit depth : 8 bitsScan type : ProgressiveCompression mode : LossyBits/(Pixel*Frame) : 0.245Stream size : 62.4 MiB (90%)Writing library : XviD 1.2.1 (UTC 2008-12-04)
AudioID : 1Format : MPEG AudioFormat version : Version 1Format profile : Layer 3Codec ID : 55Codec ID/Hint : MP3Duration : 4mn 38sBit rate mode : ConstantBit rate : 192 KbpsChannel count : 2 channelsSampling rate : 44.1 KHzCompression mode : LossyStream size : 6.37 MiB (9%)Alignment : Split accross interleavesInterleave, duration : 40 ms (1.00 video frame)Interleave, preload duration : 500 msWriting library : LAME3.99rEncoding settings : -m s -V 4 -q 0 -lowpass 18.6 -b 192

Скриншоты

[Профиль] [ЛС]
Показать сообщения:    

Текущее время: Сегодня 10:05

Часовой пояс: GMT



Вы не можете начинать темы
Вы не можете отвечать на сообщения
Вы не можете редактировать свои сообщения
Вы не можете удалять свои сообщения
Вы не можете голосовать в опросах
Вы не можете прикреплять файлы к сообщениям
Вы не можете скачивать файлы