Вопль / Goksung (2016) BDRip 720p | L2

 
Автор Сообщение

ODESSA ®

Пол:

Стаж: 1 год 7 месяцев

Сообщений: 421

Откуда: ODESSA



Награды: Нет

Торрент-статистика

Создавать темы 08-Июл-2016 10:26

[Цитировать]

Вопль / The Wailing / Goksung
Страна: Южная Корея
Производство: 20th Century Fox, Ivanhoe Pictures, Side Mirror
Год выпуска: 2016
Жанр: триллер, драма
Продолжительность: 02:35:48
Режиссер: На Хон-джин
Автор сценария: На Хон-джин
В ролях: Квак То-вон, Хван Джон-мин, Дзюн Кунимура, Чхон У-хи, Ким Хван-хи, Чан Со-ён, Чо Хан-чхоль, Чхве Гви-хва, Ли Чхан-хун, Ю Сун-ун
Описание: В отдаленной лесной деревне Коксон происходят ужасные вещи — люди вдруг покрываются язвами, странно себя ведут и даже нападают на своих родных. Уже произошло несколько убийств. Полиция в растерянности. Судя по слухам, виноваты то ли какие-то ядовитые грибы, то ли приезжий японец. Местный полицейский Чон-гу смотрит на происходящее довольно отстранённо, но ровно до тех пор, этот кошмар не касается его дочери...

Перевод: Любительский (двухголосый, закадровый) | den904 & DeadSno
Субтитры: английские-Качество: BDRip 720p
Формат: МКV
Видео кодек: AVC
Аудио кодек: АС3
Видео: 1280x720 (16:9), 29.970 fps, MPEG-4 AVC ~3 079 kbps avg
Аудио: 48.0 kHz, AC3 Dolby Digital, 2/0 (L,R) ch, ~192 kbps
Формат субтитров: UTF-8 Plain Text
Дата премьеры (мир): 11 мая 2016

Media Info

General
Unique ID : 170323721307618459708019091998629035496 (0x802327CF8A9B0263B61BBC608FC5FDE8)
Format : Matroska
Format version : Version 4 / Version 2
Overall bit rate : 3 337 Kbps
Encoded date : UTC 2016-07-07 10:07:12
Writing application : mkvmerge v8.5.2 ('Crosses') 64bit
Writing library : libebml v1.3.3 + libmatroska v1.4.4
DURATION : 00:03:00.720000000
NUMBER_OF_FRAMES : 39
NUMBER_OF_BYTES : 878
_STATISTICS_WRITING_APP : mkvmerge v8.5.2 ('Crosses') 64bit
_STATISTICS_WRITING_DATE_UTC : 2016-07-07 10:07:12
_STATISTICS_TAGS : BPS DURATION NUMBER_OF_FRAMES NUMBER_OF_BYTES
Video
ID : 1
Format : AVC
Format/Info : Advanced Video Codec
Format profile : Baseline@L3.1
Format settings, CABAC : No
Format settings, ReFrames : 1 frame
Codec ID : V_MPEG4/ISO/AVC
Bit rate : 3 079 Kbps
Width : 1 280 pixels
Height : 720 pixels
Display aspect ratio : 16:9
Frame rate mode : Constant
Frame rate : 29.970 fps
Color space : YUV
Chroma subsampling : 4:2:0
Bit depth : 8 bits
Scan type : Progressive
Bits/(Pixel*Frame) : 0.111
Stream size : 68.2 MiB (92%)
Default : Yes
Forced : No
Audio
ID : 2
Format : AC-3
Format/Info : Audio Coding 3
Mode extension : CM (complete main)
Format settings, Endianness : Big
Codec ID : A_AC3
Bit rate mode : Constant
Bit rate : 192 Kbps
Channel(s) : 2 channels
Channel positions : Front: L R
Sampling rate : 48.0 KHz
Compression mode : Lossy
Stream size : 4.25 MiB (6%)
Default : Yes
Forced : No
Text
ID : 3
Format : UTF-8
Codec ID : S_TEXT/UTF8
Codec ID/Info : UTF-8 Plain Text
Default : No
Forced : No

Скриншоты

[Профиль] [ЛС]
Кто просматривает тему:

Форум Тема Автор Размер
Фильмы 2016 года Вопль / Goksung (2016) HDRip | L2 ODESSA 1.44 GB
Показать сообщения:    

Текущее время: Сегодня 15:41

Часовой пояс: GMT



Вы не можете начинать темы
Вы не можете отвечать на сообщения
Вы не можете редактировать свои сообщения
Вы не можете удалять свои сообщения
Вы не можете голосовать в опросах
Вы не можете прикреплять файлы к сообщениям
Вы не можете скачивать файлы