Вопль / Goksung (2016) HDRip | L2

 
Автор Сообщение

ODESSA ®

Пол:

Стаж: 1 год 7 месяцев

Сообщений: 421

Откуда: ODESSA



Награды: Нет

Торрент-статистика

Создавать темы 08-Июл-2016 10:24

[Цитировать]

Вопль / The Wailing / Goksung
Страна: Южная Корея
Производство: 20th Century Fox, Ivanhoe Pictures, Side Mirror
Год выпуска: 2016
Жанр: триллер, драма
Продолжительность: 02:35:48
Режиссер: На Хон-джин
Автор сценария: На Хон-джин
В ролях: Квак То-вон, Хван Джон-мин, Дзюн Кунимура, Чхон У-хи, Ким Хван-хи, Чан Со-ён, Чо Хан-чхоль, Чхве Гви-хва, Ли Чхан-хун, Ю Сун-ун
Описание: В отдаленной лесной деревне Коксон происходят ужасные вещи — люди вдруг покрываются язвами, странно себя ведут и даже нападают на своих родных. Уже произошло несколько убийств. Полиция в растерянности. Судя по слухам, виноваты то ли какие-то ядовитые грибы, то ли приезжий японец. Местный полицейский Чон-гу смотрит на происходящее довольно отстранённо, но ровно до тех пор, этот кошмар не касается его дочери...

Перевод: Любительский (двухголосый, закадровый) | den904 & DeadSno
Субтитры: нет-Качество: HDRip
Формат: АVI
Видео кодек: XviD
Аудио кодек: МР3
Видео: 720x400 (16:9), 29.970 fps, XviD build 67 ~1 047 kbps avg, 0.121 bit/pixel
Аудио: 48.0 kHz, MPEG Layer 3, 2 ch, ~256 kbps
Дата премьеры (мир): 11 мая 2016

Media Info

General
Complete name : ВопльThe Wailing 2016.HDRip..avi
Format : AVI
Format/Info : Audio Video Interleave
Format profile : OpenDML
File size : 1.44 GiB
Duration : 2h 35mn
Overall bit rate : 1 319 Kbps
Movie name : SPL.2.A.Time.for.Consequences.2015.720p.BRRip.1GB.MkvCage
Writing application : Lavf57.25.100
Video
ID : 0
Format : MPEG-4 Visual
Format profile : Advanced Simple@L5
Format settings, BVOP : 1
Format settings, QPel : No
Format settings, GMC : No warppoints
Format settings, Matrix : Default (MPEG)
Codec ID : XVID
Codec ID/Hint : XviD
Duration : 2h 35mn
Bit rate : 1 047 Kbps
Width : 720 pixels
Height : 400 pixels
Display aspect ratio : 16:9
Frame rate : 29.970 fps
Color space : YUV
Chroma subsampling : 4:2:0
Bit depth : 8 bits
Scan type : Progressive
Compression mode : Lossy
Bits/(Pixel*Frame) : 0.121
Stream size : 1.14 GiB (79%)
Writing library : XviD 67
Audio
ID : 1
Format : MPEG Audio
Format version : Version 1
Format profile : Layer 3
Mode : Joint stereo
Mode extension : MS Stereo
Codec ID : 55
Codec ID/Hint : MP3
Duration : 2h 35mn
Bit rate mode : Constant
Bit rate : 256 Kbps
Channel(s) : 2 channels
Sampling rate : 48.0 KHz
Compression mode : Lossy
Stream size : 285 MiB (19%)
Alignment : Aligned on interleaves
Interleave, duration : 24 ms (0.72 video frame)
Writing library : LAME3.99.5ЄЄЄЄЄЄЄЄЄЄ

Скриншоты

[Профиль] [ЛС]
Кто просматривает тему:

Форум Тема Автор Размер
Фильмы (HD Rips | 720p, 1080p) Вопль / Goksung (2016) BDRip 720p | L2 ODESSA 3.89 GB
Показать сообщения:    

Текущее время: Сегодня 04:29

Часовой пояс: GMT



Вы не можете начинать темы
Вы не можете отвечать на сообщения
Вы не можете редактировать свои сообщения
Вы не можете удалять свои сообщения
Вы не можете голосовать в опросах
Вы не можете прикреплять файлы к сообщениям
Вы не можете скачивать файлы