Вооружённый ответ / Armed Response (2017) WEB-DL 720p | L

 
Автор Сообщение

BOSS ®

Пол:

Стаж: 3 года

Сообщений: 7569

Откуда: ODESSA



Награды: 22 (Подробнее)

Top Keeper 4 (Количество: 1) Top Releaser 3 (Количество: 1) Mega Seeder 3 (Количество: 1)
Торрент-статистика

Создавать темы 06-Авг-2017 15:40

[Цитировать]

Информация о фильме
Название: Вооружённый ответ
Оригинальное название: Armed Response
Год выхода: 2017
Жанр: ужасы, триллер
Режиссер: Джон Стокуэлл
В ролях: Уэсли Снайпс, Энн Хеч, Дэйв Эннэйбл, Джин Симмонс, Колби Лопес, Энтони Азизи, Мэтт Галлини, Chelle Ramos, Эйас Юнис, Морган Робертс
О фильме:
Команда оперативников оказывается в ловушке внутри воинской части. Без того удушающую атмосферу накаляет тот факт, что в этом самом здании уже погибла команда их предшественников.

Страна: США
Студия: Erebus Pictures, Maandi Films, WWE Studios
Продолжительность: 01:34:50
Перевод: любительский многоголосный, закадровый ["Синема УС"]
Файл
Кодек: H.264
Качество: WEB-DL 720p
Видео: AVC, 1280x716 (16:9), 23.976 fps ~ 3720 Kbps
Звук: AC3, 48 KHz, 2 ch ~ 192 Kb/s
Субтитры: отсутствуют

MI:

Общее
Уникальный идентификатор : 253096966141190785566228101148077657073 (0xBE68B3DD19EF195FA2370023A5BF0BF1)
Полное имя : Q:TorFArmed.Response.2017.WEB-DL.720p.mkv
Формат : Matroska
Версия формата : Version 2
Размер файла : 2,64 Гбайт
Продолжительность : 1 ч. 34 м.
Режим общего битрейта : Постоянный
Общий поток : 3991 Кбит/сек
Дата кодирования : UTC 2017-08-06 11:04:16
Программа кодирования : mkvmerge v5.4.0 ('Piper') built on Mar 10 2012 13:34:39
Библиотека кодирования : libebml v1.2.3 + libmatroska v1.3.0
DURATION : 01:35:34.368000000
NUMBER_OF_FRAMES : 179199
NUMBER_OF_BYTES : 137624832
_STATISTICS_WRITING_APP : mkvmerge v14.0.0 ('Flow') 64bit
_STATISTICS_WRITING_DATE_UTC : 2017-08-05 13:04:04
_STATISTICS_TAGS : BPS DURATION NUMBER_OF_FRAMES NUMBER_OF_BYTES
Видео
Идентификатор : 1
Формат : AVC
Формат/Информация : Advanced Video Codec
Профиль формата : High@L4.1
Параметр CABAC формата : Да
Параметр ReFrames формата : 9 кадров
Идентификатор кодека : V_MPEG4/ISO/AVC
Продолжительность : 1 ч. 34 м.
Вид битрейта : Постоянный
Битрейт : 3719 Кбит/сек
Номинальный битрейт : 4000 Кбит/сек
Ширина : 1280 пикселей
Высота : 716 пикселей
Соотношение сторон : 16:9
Частота кадров : 23,976 кадра/сек
Стандарт вещания : Component
Цветовое пространство : YUV
Субдискретизация насыщенности : 4:2:0
Битовая глубина : 8 бит
Тип развёртки : Прогрессивная
Бит/(Пиксели*Кадры) : 0.169
Размер потока : 2,47 Гбайт (93%)
Язык : English
Default : Да
Forced : Нет
Основные цвета : BT.709-5, BT.1361, IEC 61966-2-4, SMPTE RP177
Характеристики трансфера : BT.709-5, BT.1361
Коэффициенты матрицы : BT.709-5, BT.1361, IEC 61966-2-4 709, SMPTE RP177
Аудио
Идентификатор : 2
Формат : AC-3
Формат/Информация : Audio Coding 3
Расширение режима : CM (complete main)
Идентификатор кодека : A_AC3
Продолжительность : 1 ч. 34 м.
Вид битрейта : Постоянный
Битрейт : 192 Кбит/сек
Каналы : 2 канала
Расположение каналов : Front: L R
Частота : 48,0 КГц
Битовая глубина : 16 бит
Метод сжатия : С потерями
Задержка видео : 21 мс.
Размер потока : 130 Мбайт (5%)
Язык : Russian
Default : Да
Forced : Нет

Скриншоты

[Профиль] [ЛС]
Показать сообщения:    

Текущее время: Сегодня 05:51

Часовой пояс: GMT



Вы не можете начинать темы
Вы не можете отвечать на сообщения
Вы не можете редактировать свои сообщения
Вы не можете удалять свои сообщения
Вы не можете голосовать в опросах
Вы не можете прикреплять файлы к сообщениям
Вы не можете скачивать файлы