Вольт 3Д / Bolt 3D (Байрон Ховард / Byron Howard, Крис Уильямс / Chris Williams) [2008, мультфильм, фантастика, комедия, семейный, BDRip-AVC] [Half OverUnder / Вертикальная анаморфная стереопара] Dub + Ukr + AVO + Original Eng + Sub Rus, Ukr, Eng

 
Автор Сообщение

reversefile ®

Пол:

Стаж: 4 года 5 месяцев

Сообщений: 842

Откуда: ReverseFile.org



Награды: Нет

Торрент-статистика

Создавать темы 11-Авг-2014 06:19

[Цитировать]

Вольт / Bolt«A hero is unleashed 2008»- Страна: США
Жанр: мультфильм, фантастика, комедия, приключения, семейный
Год выпуска: 2008
Продолжительность: 01:36:20-Перевод №1: Профессиональный (дублированный)
Перевод №2: Профессиональный (дублированный) Ukrainian
Перевод №3: Авторский (одноголосый закадровый) - Владимир Королёв
Оригинальная аудиодорога: English
Cубтитры: Russian (forced+full), Ukrainian (forced+full), English (full) - (*.srt)
Навигация по главам: Присутствует - (16 глав)-Режиссер: Байрон Ховард / Byron Howard, Крис Уильямс / Chris Williams
В ролях: Джон Траволта, Майли Сайрус, Сьюзи Эссман, Марк Уолтон, Малкольм МакДауэлл, Джеймс Липтон, Грег Джерманн, Дидрих Бадер, Ник Свардсон, Жан-Поль Мано-Описание:
Пес по кличке «Вольт» всю жизнь снимается в телевизионном сериале, где его герой — суперпес — спасает человечество, используя свои необычайные способности. Сам Вольт свято верит в собственную неуязвимость, невероятную силу, и умение летать. Когда же судьба забрасывает его в полный опасностей Большой Город, он все еще думает, что это — лишь очередной эпизод телесериала…
-
Download sample-Качество видео: BDRip-AVC | исх. Blu-ray 3D CEE 1080p AVC DD5.1
Формат видео: MKV
Видео кодек: x264
Аудио кодек: AC3, DTS
Формат 3D: Half OverUnder / Вертикальная анаморфная стереопара
Порядок ракурсов: левый ракурс первый-Видео: 1920x1080 at 23.976 fps, x264@L4.1, 2pass, ~7470 kbps avg
Аудио №1: 48 kHz, AC3, 3/2 (L,C,R,l,r) + LFE ch, ~640.00 kbps avg | Профессиональный (дублированный)
Аудио №2: 48 kHz, AC3, 3/2 (L,C,R,l,r) + LFE ch, ~640.00 kbps avg | Профессиональный (дублированный) Ukrainian
Аудио №3: 48 kHz, AC3, 3/2 (L,C,R,l,r) + LFE ch, ~640.00 kbps avg | Авторский (одноголосый закадровый) - Владимир Королёв
Аудио №4: 48 kHz, DTS, 3/2 (L,C,R,l,r) + LFE ch, ~1536.00 kbps avg | English-

Notes

MediaInfo

Общее
Уникальный идентификатор : 248060476693384739461211094355454729880 (0xBA9EB5C31A3608A69B63EFA145EC1E98)
Полное имя : F:\Bolt.2008.1080p.3D.BluRay.Half-OU.2xRus.Ukr.Eng.HDCLUB.mkv
Формат : Matroska
Версия формата : Version 2
Размер файла : 5,46 Гбайт
Продолжительность : 1 ч. 36 м.
Общий поток : 8107 Кбит/сек
Дата кодирования : UTC 2014-02-02 18:29:36
Программа кодирования : mkvmerge v3.4.0 ('Rapunzel') сборка от May 15 2010 09:38:20
Библиотека кодирования : libebml v0.8.0 + libmatroska v0.9.0
Attachment : Yes
Видео
Идентификатор : 1
Формат : AVC
Формат/Информация : Advanced Video Codec
Профиль формата : High@L4.1
Параметр CABAC формата : Да
Параметр ReFrames формата : 4 кадра
Идентификатор кодека : V_MPEG4/ISO/AVC
Продолжительность : 1 ч. 36 м.
Битрейт : 7470 Кбит/сек
Ширина : 1920 пикселей
Высота : 1080 пикселей
Соотношение сторон : 16:9
Режим частоты кадров : Постоянный
Частота кадров : 23,976 кадра/сек
Цветовое пространство : YUV
Субдискретизация насыщенности : 4:2:0
Битовая глубина : 8 бит
Тип развёртки : Прогрессивная
Бит/(Пиксели*Кадры) : 0.150
Размер потока : 4,92 Гбайт (90%)
Заголовок : Bolt (2008) 1080 3D BDRip
Библиотека кодирования : x264 core 142 r2389 956c8d8
Настройки программы : cabac=1 / ref=4 / deblock=1:-3:-3 / analyse=0x3:0x113 / me=umh / subme=9 / psy=1 / psy_rd=1.00:0.00 / mixed_ref=1 / me_range=32 / chroma_me=1 / trellis=2 / 8x8dct=1 / cqm=0 / deadzone=21,11 / fast_pskip=0 / chroma_qp_offset=-2 / threads=12 / lookahead_threads=2 / sliced_threads=0 / nr=0 / decimate=0 / interlaced=0 / bluray_compat=0 / constrained_intra=0 / bframes=9 / b_pyramid=2 / b_adapt=2 / b_bias=0 / direct=3 / weightb=0 / open_gop=0 / weightp=2 / keyint=250 / keyint_min=23 / scenecut=40 / intra_refresh=0 / rc=2pass / mbtree=0 / bitrate=7470 / ratetol=1.0 / qcomp=0.60 / qpmin=10 / qpmax=51 / qpstep=4 / cplxblur=20.0 / qblur=0.5 / frame-packing=4 / ip_ratio=1.40 / pb_ratio=1.30 / aq=1:1.00
Язык : English
Default : Да
Forced : Нет
Аудио
Идентификатор : 2
Формат : AC-3
Формат/Информация : Audio Coding 3
Расширение режима : CM (complete main)
Параметр Endianness формата : Big
Идентификатор кодека : A_AC3
Продолжительность : 1 ч. 36 м.
Вид битрейта : Постоянный
Битрейт : 640 Кбит/сек
Каналы : 6 каналов
Расположение каналов : Front: L C R, Side: L R, LFE
Частота : 48,0 КГц
Битовая глубина : 16 бит
Метод сжатия : С потерями
Задержка видео : 1 с. 1 мс.
Размер потока : 441 Мбайт (8%)
Заголовок : [Blu-ray CEE] Dub - AC3 5.1 @ 640 kbps
Язык : Russian
Default : Да
Forced : Нет
Текст #1
Идентификатор : 3
Формат : UTF-8
Идентификатор кодека : S_TEXT/UTF8
Идентификатор кодека/Информация : UTF-8 Plain Text
Заголовок : [SRT/UTF8] Forced
Язык : Russian
Default : Да
Forced : Нет
Текст #2
Идентификатор : 4
Формат : UTF-8
Идентификатор кодека : S_TEXT/UTF8
Идентификатор кодека/Информация : UTF-8 Plain Text
Заголовок : [SRT/UTF8] Full
Язык : Russian
Default : Нет
Forced : Нет
Текст #3
Идентификатор : 5
Формат : UTF-8
Идентификатор кодека : S_TEXT/UTF8
Идентификатор кодека/Информация : UTF-8 Plain Text
Заголовок : [SRT/UTF8] Full
Язык : English
Default : Нет
Forced : Нет
Меню
00:00:00.000 : :Начало
00:02:31.651 : :5 лет спустя
00:11:00.660 : :Микрофон-пушка
00:13:47.201 : :Защищая Пенни
00:19:19.950 : :Неожиданный поворот
00:24:18.874 : :Посылка пришла
00:27:14.383 : :"Я знаю этого пса"
00:29:48.703 : :Знакомство с Миттенами
00:35:25.832 : :Дорожное путешествие
00:42:09.569 : :Рино!
00:51:41.974 : :Большой побег
01:01:58.339 : :Как быть собакой
01:08:16.008 : :"На растоянии одной вафли"
01:13:02.711 : :Соавторы
01:18:53.061 : :Огонь!
01:29:36.830 : :Финальные титры

x264 log

x264 [info]: frame I:1171 Avg QP:13.12
x264 [info]: frame P:35182 Avg QP:14,36
x264 [info]: frame B:102222 Avg QP:15.61
Screenshots
[Профиль] [ЛС]
Кто просматривает тему:

Форум Тема Автор Размер
Зарубежные мультфильмы Вольт / Bolt (2008) BDRip-AVC | AVC sergej644 2.18 GB
Показать сообщения:    

Текущее время: Сегодня 08:02

Часовой пояс: GMT



Вы не можете начинать темы
Вы не можете отвечать на сообщения
Вы не можете редактировать свои сообщения
Вы не можете удалять свои сообщения
Вы не можете голосовать в опросах
Вы не можете прикреплять файлы к сообщениям
Вы не можете скачивать файлы