Вольта / Volta (2017) BDRip 1080p | A

 
Автор Сообщение

BOSS ®

Пол:

Стаж: 3 года 11 месяцев

Сообщений: 11851

Откуда: ODESSA



Награды: 22 (Подробнее)

Top Seeder 3 (Количество: 1) Top Seeder 2 (Количество: 1) Top Seeder 5 (Количество: 1)
Торрент-статистика

Создавать темы 16-Май-2018 16:06

[Цитировать]

Информация о фильме
Название: Вольта
Оригинальное название: Volta
Год выхода: 2017
Жанр: комедия
Режиссер: Юлиуш Махульский
В ролях: Анджей Зелиньски, Ольга Болондзь, Александра Доманьска, Михал Журавски, Яцек Брачак, Иоанна Щепковска, Катажина Херман, Малгожата Бучковска
О фильме:
Бруно Вольта - это настоящий "виртуоз" разгадывания загадок и видения людей насквозь. Однажды его обоняние усиливается: его партнерша, значительно моложе его Агнешка, в необычных обстоятельствах знакомится с девушкой по имени Вики. Новая знакомая находит в стене старой каменки таинственный и чрезвычайно драгоценный предмет. Вольта не может пропустить случая стоимостью в миллионы. Вместе с шельмовским охранником Дихою решает пойти ва-банк и готов на все, чтобы завладеть необычной вещью. Однако это не так легко, потому что безобидная на вид Вики - на самом деле достойный соперник, а не какой-нибудь «слабый пол».

Страна: Польша
Студия: Canal+ Polska
Продолжительность: 01:41:37
Перевод: Авторский (одноголосый, закадровый) М.Чадов

m_info

Unique ID : 309491480902422868207132268990099631337 (0xE8D5E41C86A9D081EA433024200C2CE9)
Complete name : D:STIMCOVolta.2017.x264.BDRip_1080p.stimco.mkv
Format : Matroska
Format version : Version 4 / Version 2
File size : 11.6 GiB
Duration : 1 h 41 min
Overall bit rate : 16.5 Mb/s
Movie name : =VOLTA=
Encoded date : UTC 2018-05-16 06:39:46
Writing application : mkvmerge v23.0.0 ('The Bride Said No') 64-bit
Writing library : libebml v1.3.6 + libmatroska v1.4.9
Cover : Yes
Attachments : cover.jpg
Video
ID : 1
Format : AVC
Format/Info : Advanced Video Codec
Format profile : High@L4.1
Format settings : CABAC / 5 Ref Frames
Format settings, CABAC : Yes
Format settings, ReFrames : 5 frames
Codec ID : V_MPEG4/ISO/AVC
Duration : 1 h 41 min
Bit rate : 11.9 Mb/s
Width : 1 920 pixels
Height : 800 pixels
Display aspect ratio : 2.40:1
Frame rate mode : Constant
Frame rate : 25.000 FPS
Color space : YUV
Chroma subsampling : 4:2:0
Bit depth : 8 bits
Scan type : Progressive
Bits/(Pixel*Frame) : 0.311
Stream size : 8.43 GiB (72%)
Title : =stimco=
Writing library : x264 core 152 r2851 ba24899
Encoding settings : cabac=1 / ref=5 / deblock=1:-2:-2 / analyse=0x3:0x133 / me=umh / subme=10 / psy=1 / psy_rd=1.05:0.10 / mixed_ref=1 / me_range=32 / chroma_me=1 / trellis=2 / 8x8dct=1 / cqm=0 / deadzone=21,11 / fast_pskip=1 / chroma_qp_offset=-2 / threads=6 / lookahead_threads=1 / sliced_threads=0 / nr=0 / decimate=1 / interlaced=0 / bluray_compat=0 / constrained_intra=0 / bframes=9 / b_pyramid=2 / b_adapt=2 / b_bias=0 / direct=1 / weightb=1 / open_gop=0 / weightp=2 / keyint=240 / keyint_min=24 / scenecut=40 / intra_refresh=0 / rc=crf / mbtree=0 / crf=18.5 / qcomp=0.60 / qpmin=0 / qpmax=69 / qpstep=4 / ip_ratio=1.25 / pb_ratio=1.20 / aq=3:0.85 / zones=147191,151607,crf=21.5
Language : Polish
Default : Yes
Forced : No
Audio #1
ID : 2
Format : DTS
Format/Info : Digital Theater Systems
Codec ID : A_DTS
Duration : 1 h 41 min
Bit rate mode : Constant
Bit rate : 1 509 kb/s
Channel(s) : 6 channels
Channel positions : Front: L C R, Side: L R, LFE
Sampling rate : 48.0 kHz
Frame rate : 93.750 FPS (512 SPF)
Bit depth : 24 bits
Compression mode : Lossy
Stream size : 1.07 GiB (9%)
Title : AVO(М.Чадов) - (цензура)
Language : Russian
Default : Yes
Forced : No
Audio #2
ID : 3
Format : DTS
Format/Info : Digital Theater Systems
Codec ID : A_DTS
Duration : 1 h 41 min
Bit rate mode : Constant
Bit rate : 1 509 kb/s
Channel(s) : 6 channels
Channel positions : Front: L C R, Side: L R, LFE
Sampling rate : 48.0 kHz
Frame rate : 93.750 FPS (512 SPF)
Bit depth : 24 bits
Compression mode : Lossy
Stream size : 1.07 GiB (9%)
Title : AVO(М.Чадов) - (без цензуры)
Language : Russian
Default : No
Forced : No
Audio #3
ID : 4
Format : DTS
Format/Info : Digital Theater Systems
Codec ID : A_DTS
Duration : 1 h 41 min
Bit rate mode : Constant
Bit rate : 1 509 kb/s
Channel(s) : 6 channels
Channel positions : Front: L C R, Side: L R, LFE
Sampling rate : 48.0 kHz
Frame rate : 93.750 FPS (512 SPF)
Bit depth : 24 bits
Compression mode : Lossy
Stream size : 1.07 GiB (9%)
Language : Polish
Default : No
Forced : No
Text #1
ID : 5
Format : UTF-8
Codec ID : S_TEXT/UTF8
Codec ID/Info : UTF-8 Plain Text
Duration : 1 h 28 min
Bit rate : 5 b/s
Count of elements : 57
Stream size : 3.77 KiB (0%)
Title : Forced
Language : Russian
Default : Yes
Forced : No
Text #2
ID : 6
Format : UTF-8
Codec ID : S_TEXT/UTF8
Codec ID/Info : UTF-8 Plain Text
Duration : 1 h 38 min
Bit rate : 121 b/s
Count of elements : 1518
Stream size : 87.9 KiB (0%)
Language : Russian
Default : No
Forced : No
Text #3
ID : 7
Format : UTF-8
Codec ID : S_TEXT/UTF8
Codec ID/Info : UTF-8 Plain Text
Duration : 1 h 38 min
Bit rate : 121 b/s
Count of elements : 1518
Stream size : 88.0 KiB (0%)
Title : нецензурные
Language : Russian
Default : No
Forced : No
Menu
00:00:00.000 : en:Chapter 1
00:12:44.400 : en:Chapter 2
00:25:22.360 : en:Chapter 3
00:35:25.200 : en:Chapter 4
00:51:31.840 : en:Chapter 5
01:04:54.720 : en:Chapter 6
01:17:01.000 : en:Chapter 7
01:31:27.680 : en:Chapter 8
Файл
Кодек: х.264
Качество: BDRip 1080p
Видео: 1920x800, 25.00 fps, 11900 kbps
Звук:
Russian: DTS / 5.1 / 48 kHz / 1509 kbps / 24 bit - Чадов (цензура)
Russian: DTS / 5.1 / 48 kHz / 1509 kbps / 24 bit - Чадов (без цензуры)
Polish: DTS / 5.1 / 48 kHz / 1509 kbps / 24 bit - оригинал
Субтитры: Russian (Forced), Russian, Russian (без цензуры)

Скриншоты




[Профиль] [ЛС]
Показать сообщения:    

Текущее время: Сегодня 16:03

Часовой пояс: GMT



Вы не можете начинать темы
Вы не можете отвечать на сообщения
Вы не можете редактировать свои сообщения
Вы не можете удалять свои сообщения
Вы не можете голосовать в опросах
Вы не можете прикреплять файлы к сообщениям
Вы не можете скачивать файлы