Вольные стрелки / Snapphanar (Монс Морлинд, Бьёрн Стейн / Mans Marlind, Bjorn Stein) [2006, Дания, Швеция, Финляндия, Норвегия, Литва, Боевик, драма, DVDRip] MVO

 
Автор Сообщение

painkiller ®

Стаж: 2 года 3 месяца

Сообщений: 582



Награды: Нет

Торрент-статистика

Создавать темы 16-Авг-2014 14:45

[Цитировать]

Вольные стрелки / Snapphanar
Страна: Дания, Швеция, Финляндия, Норвегия, Литва
Жанр: Боевик, драма
Год выпуска: 2006
Продолжительность: 02:39:28
Перевод: Профессиональный (многоголосый закадровый)
Cубтитры: нет
Режиссер: Монс Морлинд, Бьёрн Стейн / Mans Marlind, Bjorn Stein
В ролях: Андре Сьоберг, Тува Новотны, Андерс Экборг, Малин Ларссон, Густаф Скарсгард, Петер Андерссон, Ким Бодния, Йорген Перссон, Сэмюэл Хелльстрём, Адам Лунгрен
Описание: Фильм о легендарных героях, которых считали разбойниками, но они остались в народной памяти борцами против несправедливости и притеснений. 1678 г. Война между Датским и Шведским королевствами. Атмосфера насилия и беззакония заставляла местное население бежать или присоединиться к армии одной из воюющих сторон. Но были люди, которые предпочли стать «Вольными стрелками» — народными мстителями, «Робин Гудами»…
Доп. информация: Исходник DVD-9 R5
Сэмпл: http://multi-up.com/970711
Качество видео: DVDRip
Формат видео: AVI
Видео: XviD build 50, 704x304 (2.32:1), 25 fps, 1174 kbps avg
Аудио: MPEG Layer 3, 48 kHz, 2/0 (L,R) ch, 128.00 kbps avg

MediaInfo

General
Complete name : D:\Volnye.strelki.2006.XviD.DVDRip-Dego.avi
Format : AVI
Format/Info : Audio Video Interleave
File size : 1.46 GiB
Duration : 2h 39mn
Overall bit rate : 1 313 Kbps
Writing application : VirtualDubMod 1.5.10.2 (build 2540/release)
Writing library : VirtualDubMod build 2540/release
Video
ID : 0
Format : MPEG-4 Visual
Format profile : AdvancedSimple@L5
Format settings, BVOP : Yes
Format settings, QPel : No
Format settings, GMC : No warppoints
Format settings, Matrix : Default (MPEG)
Codec ID : XVID
Codec ID/Hint : XviD
Duration : 2h 39mn
Bit rate : 1 175 Kbps
Width : 704 pixels
Height : 304 pixels
Display aspect ratio : 2.35
Frame rate : 25.000 fps
Resolution : 24 bits
Colorimetry : 4:2:0
Scan type : Progressive
Bits/(Pixel*Frame) : 0.220
Stream size : 1.31 GiB (90%)
Writing library : XviD 1.2.1 (UTC 2008-12-04)
Audio
ID : 1
Format : MPEG Audio
Format version : Version 1
Format profile : Layer 3
Codec ID : 55
Codec ID/Hint : MP3
Duration : 2h 39mn
Bit rate mode : Constant
Bit rate : 128 Kbps
Channel(s) : 2 channels
Sampling rate : 48.0 KHz
Resolution : 16 bits
Stream size : 146 MiB (10%)
Alignment : Aligned on interleaves
Interleave, duration : 40 ms (1.00 video frame)
Interleave, preload duration : 504 ms
Writing library : LAME3.98r
Encoding settings : -m s -V 4 -q 2 -lowpass 17 -b 128

Скриншоты

[Профиль] [ЛС]

Создавать темы 06-Авг-2015 23:09 (спустя 11 месяцев 21 день)

Топик был перенесен из форума Фильмы до 2014 года в форум Фильмы до 2012 года
sergej644
 
Кто просматривает тему:

Форум Тема Автор Размер
Chanson VA - Подневольные сны Новинки русского шансона (2015) MP3, 256 kbps достали все 705 MB
XXXI Летние Олимпийские игры. Рио-де-Жанейро 2016 (Бразилия) XXXI Летние Олимпийские Игры. Рио-де-Жанейро (Бразилия). Вольная борьба. Женщины до 48, 58, 69 кг. Предварительные поединки, 1/8, 1/4, 1/2 финала, поединки за 3-е место. Финалы. Награждение [17.08]... BOSS 8.58 GB
XXXI Летние Олимпийские игры. Рио-де-Жанейро 2016 (Бразилия) XXXI Летние Олимпийские Игры. Рио-де-Жанейро (Бразилия). Синхронное плавание. Группы. Произвольная программа. Финал. + Награждения [19.08] (2016) IPTV 1080i достали все 4.98 GB
XXXI Летние Олимпийские игры. Рио-де-Жанейро 2016 (Бразилия) XXXI Летние Олимпийские Игры. Рио-де-Жанейро (Бразилия). Синхронное плавание. Дуэты. Произвольная программа. Квалификация [14.08] (2016) IPTVRip-AVC ODESSA 2.44 GB
XXXI Летние Олимпийские игры. Рио-де-Жанейро 2016 (Бразилия) XXXI Летние Олимпийские Игры. Рио-де-Жанейро (Бразилия). Синхронное плавание. Дуэты. Произвольная программа. Финал [16.08] (2016) IPTVRip-AVC BOSS 2.13 GB
XXXI Летние Олимпийские игры. Рио-де-Жанейро 2016 (Бразилия) XXXI Летние Олимпийские Игры. Рио. Вольная борьба. Мужчины до 57, 74 кг. Предварительные и Финальные поединки [19.08] (2016) IPTVRip-AVC ODESSA 6.14 GB
Фильмы 2006-2008 года Добровольно-принудительно / De ofrivilliga (2008) DVDRip | P2 BOSS 1.46 GB
R.G.TorrentFilm Video Дракула: Мертвый и довольный / Dracula: Dead and Loving It (Мэл Брукс) [1995 г., комедия, фэнтези, DVDRip-AVC] [MVO, DVO, AVO] Bathory 2.18 GB
Показать сообщения:    

Текущее время: Сегодня 20:04

Часовой пояс: GMT



Вы не можете начинать темы
Вы не можете отвечать на сообщения
Вы не можете редактировать свои сообщения
Вы не можете удалять свои сообщения
Вы не можете голосовать в опросах
Вы не можете прикреплять файлы к сообщениям
Вы не можете скачивать файлы