Волшебный свет / Синяя свечка / Das blaue Licht (Карстен Фибелер / Carsten Fiebeler) [2010, Германия, детский, семейный, сказка, HDTVRip] MVO (ТВЦ) + Dub (Карусель) + Original Ger

 
Автор Сообщение

TorrentFilm ®

Пол:

Стаж: 2 года

Сообщений: 7741



Награды: Нет

Торрент-статистика

Создавать темы 14-Янв-2016 00:08

[Цитировать]

Волшебный свет / Синяя свечка / Das blaue Licht
Страна: Германия
Жанр: детский, семейный, сказка
Год выпуска: 2010
Продолжительность: 00:59:02
Перевод: Профессиональный (многоголосый закадровый) компания "Игмар"
Перевод 2: Профессиональный (дублированный) по заказу ЗАО «Первый канал. Всемирная сеть»
Cубтитры: нет
Оригинальная аудиодорожка: немецкий
Режиссер: Карстен Фибелер / Carsten Fiebeler
В ролях: Кристоф Летковски, Марлен Лозе, Кристиан Трамитц, Райнер Шёне, Вероника Феррес, Гидеон Финименто, Ханнес Вегенер, Кристоф Бах, Лилит Штангенберг
Описание: Экранизация сказки братьев Гримм. Отважный солдат много лет прослужил королю Карлу, был ранен и решил вернуться домой. Он попросил у короля заработной платы за свой труд, но государь отказался платить тем, кто покидает службу и больше не будет защищать его земли. Отчаявшись, солдат бредет через лес и останавливается в избушке у загадочной красавицы, которая окажется старухой-ведьмой. Она обманом заставляет своего гостя спуститься в глубокий колодец за оброненной голубой свечкой, да так и бросает его там. С горя солдат закуривает от свечки трубку - и в этот момент перед ним возникает волшебный дух...
Доп. информация: Рип с канала 1HD. Из видеоряда удален логотип канала и другие посторонние элементы.
Сэмпл: http://multi-up.com/1083746
Качество видео: HDTVRip
Формат видео: AVI
Видео: MPEG4, XviD, 720x400 (16:9), 25.000 fps, 2 028 Kbps (0.282 bit/pixel)
Аудио: AC-3, 48.0 KHz, 2 ch, 192 Kbps, CBR - mvo
Аудио 2: AC-3, 48.0 KHz, 2 ch, 192 Kbps, CBR - dub
Аудио 3: AC-3, 48.0 KHz, 2 ch, 224 Kbps, CBR - ger

MediaInfo

бщее
Полное имя : N:\Синяя свечка.avi
Формат : AVI
Формат/Информация : Audio Video Interleave
Размер файла : 1,10 Гбайт
Продолжительность : 59 м.
Общий поток : 2655 Кбит/сек
Название фильма : Волшебный свет / Синяя свечка / Das blaue Licht (2010)
Программа кодирования : VirtualDubMod 1.5.10.2 (build 2540/release)
Библиотека кодирования : VirtualDubMod build 2540/release
Авторское право : miha2154
Видео
Идентификатор : 0
Формат : MPEG-4 Visual
Профиль формата : Advanced Simple@L5
Параметр BVOP формата : 1
Параметр QPel формата : Нет
Параметр GMC формата : Без точки перехода
Параметр матрицы формата : Выборочная
Идентификатор кодека : XVID
Идентификатор кодека/Подсказка : XviD
Продолжительность : 59 м.
Битрейт : 2028 Кбит/сек
Ширина : 720 пикселей
Высота : 400 пикселей
Соотношение сторон : 16:9
Частота кадров : 25,000 кадров/сек
Цветовое пространство : YUV
Субдискретизация насыщенности : 4:2:0
Битовая глубина : 8 бит
Тип развёртки : Прогрессивная
Метод сжатия : С потерями
Бит/(Пиксели*Кадры) : 0.282
Размер потока : 857 Мбайт (76%)
Библиотека кодирования : XviD 65
Аудио #1
Идентификатор : 1
Формат : AC-3
Формат/Информация : Audio Coding 3
Расширение режима : CM (complete main)
Параметр Endianness формата : Big
Идентификатор кодека : 2000
Продолжительность : 59 м.
Вид битрейта : Постоянный
Битрейт : 192 Кбит/сек
Каналы : 2 канала
Расположение каналов : Front: L R
Частота : 48,0 КГц
Частота кадров : 31,250 кадров/сек (1536 spf)
Метод сжатия : С потерями
Размер потока : 81,1 Мбайт (7%)
Выравнивание : Разделение по промежуткам
Продолжительность промежутка : 40 мс. (1,00 видеокадр)
Время предзагрузки промежутка : 500 мс.
Заголовок : Профессиональный (многоголосый закадровый) ТВЦ
Аудио #2
Идентификатор : 2
Формат : AC-3
Формат/Информация : Audio Coding 3
Расширение режима : CM (complete main)
Параметр Endianness формата : Big
Идентификатор кодека : 2000
Продолжительность : 59 м.
Вид битрейта : Постоянный
Битрейт : 192 Кбит/сек
Каналы : 2 канала
Расположение каналов : Front: L R
Частота : 48,0 КГц
Частота кадров : 31,250 кадров/сек (1536 spf)
Метод сжатия : С потерями
Размер потока : 81,1 Мбайт (7%)
Выравнивание : Разделение по промежуткам
Продолжительность промежутка : 40 мс. (1,00 видеокадр)
Время предзагрузки промежутка : 500 мс.
Заголовок : Профессиональный (полное дублирование) Карусель
Аудио #3
Идентификатор : 3
Формат : AC-3
Формат/Информация : Audio Coding 3
Расширение режима : CM (complete main)
Параметр Endianness формата : Big
Идентификатор кодека : 2000
Продолжительность : 59 м.
Вид битрейта : Постоянный
Битрейт : 224 Кбит/сек
Каналы : 2 канала
Расположение каналов : Front: L R
Частота : 48,0 КГц
Частота кадров : 31,250 кадров/сек (1536 spf)
Метод сжатия : С потерями
Размер потока : 94,6 Мбайт (8%)
Выравнивание : Разделение по промежуткам
Продолжительность промежутка : 40 мс. (1,00 видеокадр)
Время предзагрузки промежутка : 500 мс.
Заголовок : Немецкий

Скриншоты


[Профиль] [ЛС]

Создавать темы 12-Июн-2016 07:53 (спустя 4 месяца 29 дней)

Топик был перенесен из форума Фильмы 2011 года в форум Фильмы 2010 года
Russian Mafia
 
Показать сообщения:    

Текущее время: Сегодня 08:31

Часовой пояс: GMT



Вы не можете начинать темы
Вы не можете отвечать на сообщения
Вы не можете редактировать свои сообщения
Вы не можете удалять свои сообщения
Вы не можете голосовать в опросах
Вы не можете прикреплять файлы к сообщениям
Вы не можете скачивать файлы