Волшебный свет / Das blaue Licht (Карстен Фибелер / Carsten Fiebeler) [2010 г., Германия, детский, семейный, фэнтези, DVB] Dub

 
Автор Сообщение

reversefile ®

Пол:

Стаж: 4 года 5 месяцев

Сообщений: 842

Откуда: ReverseFile.org



Награды: Нет

Торрент-статистика

Создавать темы 11-Авг-2014 10:43

[Цитировать]

Волшебный свет / Das blaue Licht
Год выпуска: 2010
Страна: Германия, Hessischer Rundfunk
Жанр: детский, семейный, фэнтези
Продолжительность: 00:58:32
Перевод: профессиональный (дублированный) по заказу ЗАО «Первый канал. Всемирная сеть»
Русские субтитры: нет
Режиссёр: Карстен Фибелер / Carsten Fiebeler
В ролях: Кристоф Летковски, Марлен Лозе, Кристиан Трамитц, Райнер Шёне, Вероника Феррес, Гидеон Финименто, Ханнес Вегенер, Кристоф Бах, Лилит Штангенберг
Описание: отважный солдат много лет прослужил королю Карлу, был ранен и решил вернуться домой. Он попросил у короля заработной платы за свой труд, но государь отказался платить тем, кто покидает службу и больше не будет защищать его земли. Отчаявшись, солдат бредет через лес и останавливается в избушке у загадочной красавицы, которая окажется старухой-ведьмой. Она обманом заставляет своего гостя спуститься в глубокий колодец за оброненной голубой свечкой, да так и бросает его там. С горя солдат закуривает от свечки трубку - и в этот момент перед ним возникает волшебный дух...
Доп. информация: по мотивам сказки братьев Гримм

Трансляция спутникового канала:

Семпл: https://yadi.sk/i/Hla89sPDWxKzT
Качество видео: DVB
Формат видео: MPEG-PS
Видео: MPEG2 Video, 720x576 (4:3), 25 fps, 4174 kbps
Аудио: MPEG Audiо, 2 сh, 48 kHz, 192 kbps

MediaInfo

General
Complete name : D:\Волшебный свет. (2010)_DVB by SLuMeP.mpg
Format : MPEG-PS
File size : 1.82 GiB
Duration : 58mn 32s
Overall bit rate mode : Variable
Overall bit rate : 4 454 Kbps
Video
ID : 224 (0xE0)
Format : MPEG Video
Format version : Version 2
Format profile : Main@Main
Format settings, BVOP : No
Format settings, Matrix : Custom
Format settings, GOP : M=3, N=12
Duration : 58mn 32s
Bit rate mode : Variable
Bit rate : 4 174 Kbps
Maximum bit rate : 15.0 Mbps
Width : 720 pixels
Height : 576 pixels
Display aspect ratio : 4:3
Frame rate : 25.000 fps
Standard : PAL
Color space : YUV
Chroma subsampling : 4:2:0
Bit depth : 8 bits
Scan type : Interlaced
Scan order : Top Field First
Compression mode : Lossy
Bits/(Pixel*Frame) : 0.403
Time code of first frame : 00:00:00:00
Time code source : Group of pictures header
Stream size : 1.71 GiB (94%)
Audio
ID : 192 (0xC0)
Format : MPEG Audio
Format version : Version 1
Format profile : Layer 2
Duration : 58mn 32s
Bit rate mode : Constant
Bit rate : 192 Kbps
Channel(s) : 2 channels
Sampling rate : 48.0 KHz
Compression mode : Lossy
Stream size : 80.4 MiB (4%)

Скриншоты


[Профиль] [ЛС]

Создавать темы 06-Авг-2015 23:20 (спустя 11 месяцев 26 дней)

Топик был перенесен из форума Фильмы до 2014 года в форум Фильмы до 2012 года
sergej644
 

Создавать темы 12-Июн-2016 07:53 (спустя 1 год 10 месяцев)

Топик был перенесен из форума Фильмы 2011 года в форум Фильмы 2010 года
Russian Mafia
 
Показать сообщения:    

Текущее время: Сегодня 18:21

Часовой пояс: GMT



Вы не можете начинать темы
Вы не можете отвечать на сообщения
Вы не можете редактировать свои сообщения
Вы не можете удалять свои сообщения
Вы не можете голосовать в опросах
Вы не можете прикреплять файлы к сообщениям
Вы не можете скачивать файлы