Волшебный ковер (Лев Атаманов) [1948, рисованный мультфильм, VHSRip]

 
Автор Сообщение

painkiller ®

Стаж: 2 года 3 месяца

Сообщений: 582



Награды: Нет

Торрент-статистика

Создавать темы 27-Авг-2014 15:28

[Цитировать]

Волшебный ковер
Страна: СССР
Жанр: рисованный мультфильм
Продолжительность: 34мин 20сек
Год выпуска: 1948
Русские субтитры: нет
Режиссёр: Лев Атаманов
Описание: Ереванская к/с
По мотивам одноименной басни Гамзата Цадассы:
Сказка на восточные мотивы о борьбе со злым волшебником

Доп. информация: Видео самое качественное в интернете , аудио также имеет меньше шумов чем исходное в интренете..
Качество: VHSRip
Формат: AVI
Видео: MPEG-4; 624х480; 1015 кбит/сек;23.976 fps
Аудио: mp3 ; 44.1 KHz ; 2 channels ; 192 Kbps
Субтитры: отсутствуют

Подробные технические данные

GeneralComplete name : C:\Documents and Settings\Рафики\Рабочий стол\Волшебный ковёр (1948).aviFormat : AVIFormat/Info : Audio Video InterleaveFile size : 296 MiBDuration : 34mn 20sOverall bit rate : 1 206 KbpsWriting application : VirtualDubMod 1.5.10.2 (build 2540/release)Writing library : VirtualDubMod build 2540/release
VideoID : 0Format : MPEG-4 VisualFormat profile : Simple@L3Format settings, BVOP : NoFormat settings, QPel : NoFormat settings, GMC : No warppointsFormat settings, Matrix : Default (H.263)Codec ID : XVIDCodec ID/Hint : XviDDuration : 34mn 20sBit rate : 1 015 KbpsWidth : 624 pixelsHeight : 480 pixelsDisplay aspect ratio : 4:3Frame rate : 23.976 fpsColor space : YUVChroma subsampling : 4:2:0Bit depth : 8 bitsScan type : ProgressiveCompression mode : LossyBits/(Pixel*Frame) : 0.141Stream size : 249 MiB (84%)Writing library : XviD 1.2.1 (UTC 2008-12-04)
AudioID : 1Format : MPEG AudioFormat version : Version 1Format profile : Layer 3Mode : Joint stereoCodec ID : 55Codec ID/Hint : MP3Duration : 32mn 37sBit rate mode : ConstantBit rate : 192 KbpsChannel(s) : 2 channelsSampling rate : 44.1 KHzCompression mode : LossyStream size : 44.8 MiB (15%)Alignment : Split accross interleavesInterleave, duration : 44 ms (1.05 video frame)Interleave, preload duration : 500 ms

Скриншоты

[Профиль] [ЛС]
Показать сообщения:    

Текущее время: Сегодня 14:35

Часовой пояс: GMT



Вы не можете начинать темы
Вы не можете отвечать на сообщения
Вы не можете редактировать свои сообщения
Вы не можете удалять свои сообщения
Вы не можете голосовать в опросах
Вы не можете прикреплять файлы к сообщениям
Вы не можете скачивать файлы