Волшебные ПопПикси / Pop Pixie [01x01-52 из 52] (2011) DVDRip-AVC от New-Team | D | лицензия

 
Автор Сообщение

sergej644 ®

Пол:

Стаж: 4 года 11 месяцев

Сообщений: 6046

Откуда: Soviet Union



Награды: Нет

Торрент-статистика

Создавать темы 06-Ноя-2014 16:22

[Цитировать]

Страна: Италия, Rainbow S.r.l
Жанр: мультсериал
Продолжительность: ~ 00:13:40 одна серия
Год выпуска: 2011
Перевод: Профессиональный (дублированный)
Русские субтитры: нет
Режиссёр:
Иджинио Страффи / Idzhinio Straffi
Роли озвучивали: "Русский дубляж"
Описание:
В тихом уединенном уголке магической вселенной есть особое измерение, маленький мир, населенный гномами, эльфами, говорящими животными и… самое главное, волшебными феями Пикси. Город, в котором живут все эти существа, называется Пиксивилль, и волшебство – обычное дело в жизни его обитателей. Пиксивилль находится в дремучем лесу среди вековых деревьев и густого кустарника. Этот очень крупный город расположен в необыкновенном месте, где слились воедино природа и волшебство. Дерево Жизни – это древнее магическое дерево, обеспечивающее волшебной силой весь Пиксивилль. Основная обязанность фей Пикси – охранять Дерево Жизни. Энергия Дерева поддерживает волшебную стену, защищающую Пиксивилль от внешней угрозы и врагов. Шары МаджикПопc, наполненные добрым волшебством, растут на Дереве жизни, и когда фея Пикси разумно используют свой дар на всеобщее благо, она может получить шар МаджикПоп и стать ПопПикси.
-Качество видео: DVDRip-AVC / DVD5 R5 от компании "Новый диск"
Формат видео: MKV
Видео: 720x572@768x572 (4:3), H264 2006 Кбит/сек 25,000 fps / Бит/(Пиксели*Кадры): 0.195
Аудио: Dolby Digital Audio Russian 192 kbps 2.0 / 48 kHz
Релиз от:

Список серий

01 серия - Зеленая атака
02 серия - Рыба-пикси
03 серия - Сумасшедшая погода
04 серия - Секрет Локетт
05 серия - Летающие деньги
06 серия - Дерево мороженного
07 серия - Зеркальное заклинание
08 серия - Большое интервью
09 серия - Робот для Чатты
10 серия - Загадка потерянного
11 серия - Пикси идут в поход
12 серия - Спасите неуклюжих обезьян
13 серия - Мой лучший друг
14 серия - Любовный напиток Амор
15 серия - Суперигрушка
16 серия - Триумф техномагии
17 серия - Эльф в школе
18 серия - Гномы сошли с ума
19 серия - Ленни и Юкка воюют
20 серия - Проклятье молчания
21 серия - Герои школьного автобуса
22 серия - Я тоже ПопПикси
23 серия - Ты уволен!
24 серия - День плохих причесок
25 серия - Специальный талант Мартино
26 серия - Нападение гигантских пауков
27 серия - Золотая лихорадка гномов
28 серия - Идеальная вечеринка
29 серия - Забавный питомец
30 серия - Гран-при Пиксевиля
31 серия - Бурное шоу талантов
32 серия - Великолепные концертные номера от Джолли
33 серия - Амор и враждующие драконы
34 серия - Главный фанат Чатты
35 серия - Последний гном
36 серия - Подземный налет эльфов
37 серия - Волшебные шары в опасности
38 серия - День электризации
39 серия - Три удивительных желания
40 серия - Пикси-лилипуты
41 серия - Болтливый соперник Чатты
42 серия - Поторопись, Пэм
43 серия - Проклятье божьей коровки
44 серия - Простуда Фиксино и Мартино
45 серия - Сахарные кексы Карамели
46 серия - Жить, как живёт Черри
47 серия - Соревнование между Карамель и Мартино
48 серия - Русалки - лучшие друзья Поппикси
49 серия - Сокровище под радугой
50 серия - Русалочье зелье
51 серия - Угроза Рекса Пиксивиллю
52 серия - Спасение древа жизни

Внимание! Раздача ведётся путём добавления новых серий

Внимание! Раздача ведётся путём добавления новых серий; при каждом добавлении создаётся новый торрент-файл. Чтобы начать докачку новой серии, пользователям необходимо сделать следующее:
(1) остановить скачивание;
(2) удалить старый торрент-файл у себя из клиента (старые серии удалять не надо);
(3) скачать новый торрент-файл и запустить его у себя в клиенте вместо старого, при этом указать клиенту путь в старую папку куда и должно происходить скачивание новых серий.
Ваш клиент при этом должен произвести хеширование (проверку) старой папки (если он не производит проверку сам – помогите ему сделать это), и будет докачивать только те серии которых у вас ещё нет. Старые серии при этом не удаляются, а продолжают раздаваться!
Если вы уже удалили старые серии, то предотвратить повторную закачку старых серий можно, отжав галочку в соответствующих местах при запуске нового торрент-файла. Желательно старые серии не удалять как можно дольше, чтобы релизёр не столько продолжал раздавать старые серии, а смог сконцентрироваться на новых.

MediaInfo

Общее
Полное имя : Volshebnye.PopPiksi.2011.D.DVDRip-AVC_[Youtracker]_by_avproh�1.mkv
Формат : Matroska
Версия формата : Version 2
Размер файла : 214 Мбайт
Продолжительность : 13 м.
Общий поток : 2200 Кбит/сек
Дата кодирования : UTC 2013-04-06 04:53:49
Программа кодирования : mkvmerge v5.0.1 ('Es ist Sommer') built on Nov 6 2011 16:23:40
Библиотека кодирования : libebml v1.2.2 + libmatroska v1.3.0
Видео
Идентификатор : 1
Формат : AVC
Формат/Информация : Advanced Video Codec
Профиль формата : High@L4.1
Параметр CABAC формата : Да
Параметр ReFrames формата : 11 кадров
Идентификатор кодека : V_MPEG4/ISO/AVC
Продолжительность : 13 м.
Битрейт : 2006 Кбит/сек
Ширина : 720 пикселей
Высота : 572 пикселя
Соотношение сторон : 4:3
Режим частоты кадров : Постоянный
Частота кадров : 25,000 кадров/сек
Цветовое пространство : YUV
Субдискретизация насыщенности : 4:2:0
Битовая глубина : 8 бит
Тип развёртки : Прогрессивная
Бит/(Пиксели*Кадры) : 0.195
Размер потока : 191 Мбайт (89%)
Библиотека кодирования : x264 core 119 r2106 07efeb4
Настройки программы : cabac=1 / ref=11 / deblock=1:-2:-1 / analyse=0x3:0x113 / me=umh / subme=9 / psy=1 / psy_rd=1.00:0.20 / mixed_ref=1 / me_range=32 / chroma_me=1 / trellis=1 / 8x8dct=1 / cqm=0 / deadzone=21,11 / fast_pskip=0 / chroma_qp_offset=-3 / threads=6 / sliced_threads=0 / nr=0 / decimate=0 / interlaced=0 / bluray_compat=0 / constrained_intra=0 / bframes=8 / b_pyramid=2 / b_adapt=2 / b_bias=0 / direct=3 / weightb=1 / open_gop=0 / weightp=2 / keyint=250 / keyint_min=25 / scenecut=40 / intra_refresh=0 / rc_lookahead=60 / rc=2pass / mbtree=1 / bitrate=2006 / ratetol=1.0 / qcomp=0.60 / qpmin=0 / qpmax=69 / qpstep=4 / cplxblur=20.0 / qblur=0.5 / ip_ratio=1.40 / aq=1:1.00
Default : Да
Forced : Нет
Аудио
Идентификатор : 2
Формат : AC-3
Формат/Информация : Audio Coding 3
Расширение режима : CM (complete main)
Параметр Endianness формата : Big
Идентификатор кодека : A_AC3
Продолжительность : 13 м.
Вид битрейта : Постоянный
Битрейт : 192 Кбит/сек
Каналы : 2 канала
Расположение каналов : Front: L R
Частота : 48,0 КГц
Битовая глубина : 16 бит
Метод сжатия : С потерями
Размер потока : 18,7 Мбайт (9%)
Default : Да
Forced : Нет

Скриншоты

--
[Профиль] [ЛС]
Показать сообщения:    

Текущее время: Сегодня 03:19

Часовой пояс: GMT



Вы не можете начинать темы
Вы не можете отвечать на сообщения
Вы не можете редактировать свои сообщения
Вы не можете удалять свои сообщения
Вы не можете голосовать в опросах
Вы не можете прикреплять файлы к сообщениям
Вы не можете скачивать файлы