Волшебное кольцо (Леонид Носырев) [1979, мультфильм, DVB]

 
Автор Сообщение

TorrentFilm ®

Пол:

Стаж: 2 года

Сообщений: 7741



Награды: Нет

Торрент-статистика

Создавать темы 20-Фев-2015 00:01

[Цитировать]

Волшебное кольцо
Страна: СССР, Союзмультфильм
Жанр: мультфильм
Год выпуска: 1979
Продолжительность: 00:18:40
Режиссёр: Леонид Носырев
Описание: мультфильм о том , что у Вани совсем нет денег, а свою последнюю одежду он отдал за спасение несчастных животных. Теперь у него дома живет кошка, собака и змея. Но неожиданно оказалось, что эта змея — дочь короля, поэтому за свое спасение она подарила ему волшебное кольцо. И теперь Ваня может пожелать все, что угодно, и его желание исполнится !
Доп. информация: по сказкам Бориса Шергина

Релиз группы:
Трансляция спутникового канала:

Качество видео: DVB
Формат видео: MPEG-PS
Видео: MPEG2 Video, 720x576 (4:3), 25 fps, 3900 kbps
Аудио: MPEG Audiо, 2 сh, 48 kHz, 192 kbps

MediaInfo

General
Complete name : D:\Волшебное кольцо. (1979)_DVB by SLuMeP.mpg
Format : MPEG-PS
File size : 563 MiB
Duration : 18mn 40s
Overall bit rate mode : Variable
Overall bit rate : 4 213 Kbps
Video
ID : 224 (0xE0)
Format : MPEG Video
Format version : Version 2
Format profile : Main@Main
Format settings, BVOP : No
Format settings, Matrix : Custom
Format settings, GOP : M=3, N=12
Duration : 18mn 40s
Bit rate mode : Variable
Bit rate : 3 937 Kbps
Maximum bit rate : 5 000 Kbps
Width : 720 pixels
Height : 576 pixels
Display aspect ratio : 4:3
Frame rate : 25.000 fps
Standard : PAL
Color space : YUV
Chroma subsampling : 4:2:0
Bit depth : 8 bits
Scan type : Interlaced
Scan order : Top Field First
Compression mode : Lossy
Bits/(Pixel*Frame) : 0.380
Time code of first frame : 00:00:00:00
Time code source : Group of pictures header
Stream size : 526 MiB (93%)
Audio
ID : 192 (0xC0)
Format : MPEG Audio
Format version : Version 1
Format profile : Layer 2
Duration : 18mn 40s
Bit rate mode : Constant
Bit rate : 192 Kbps
Channel(s) : 2 channels
Sampling rate : 48.0 KHz
Compression mode : Lossy
Stream size : 25.7 MiB (5%)

Скриншоты


[Профиль] [ЛС]
Показать сообщения:    

Текущее время: Сегодня 00:36

Часовой пояс: GMT



Вы не можете начинать темы
Вы не можете отвечать на сообщения
Вы не можете редактировать свои сообщения
Вы не можете удалять свои сообщения
Вы не можете голосовать в опросах
Вы не можете прикреплять файлы к сообщениям
Вы не можете скачивать файлы