Волшебники из Вэйверли Плэйс в кино / Wizards of Waverly Place: The Movie (Лев Л. Спиро / Lev L. Spiro) [2009, США, фэнтези, комедия, приключения, DVDRip] Dub + Sub Rus, Ukr, Eng +Original Eng

 
Автор Сообщение

TorrentFilm ®

Пол:

Стаж: 2 года

Сообщений: 7741



Награды: Нет

Торрент-статистика

Создавать темы 11-Фев-2016 00:08

[Цитировать]

Волшебники из Вэйверли Плэйс в кино / Wizards of Waverly Place: The Movie
Страна: США
Жанр: фэнтези, комедия, приключения
Год выпуска: 2009
Продолжительность: 01:34:00
Перевод: Профессиональный (дублированный)
Cубтитры: русские, украинские, английские
Оригинальная аудиодорожка: английский
Режиссер: Лев Л. Спиро / Lev L. Spiro
В ролях: Селена Гомес, Дэвид Генри, Джейк Т. Остин, Дженнифер Стоун, Мария Кэнелс-Баррера, Дэвид ДеЛуис, Стив Валентайн, Ксавьер Торрес, Дженни Элден, Жасмин Каратини
Описание: Семья волшебников Руссо приезжают на каникулы на Карибы, где Джерри и Тереза встретились в первый раз. Алекс расстроена, поскольку она должна сопровождать свою семью в поездке, и она, в конечном счете, зачаровывает период первой встречи родителей, который полностью изменяет первую встречу ее родителей и ставит под угрозу существование всей семьи. Чтобы отменить заклинание, Алекс и Джастин должны пройти через джунгли и найти всесильный «Камень Мечтаний». Тем временем, младший сын, Макс так же старается влюбить своих родителей, но уже своими способами.
Сэмпл: http://multi-up.com/1088312
Качество видео: DVDRip Исходник
Формат видео: AVI
Видео: 704x384 (1.83:1), 25 fps, XviD build 50 ~1639 kbps avg, 0.24 bit/pixel
Аудио: 48 kHz, AC3 Dolby Digital, 2/0 (L,R) Surround Encoded ch, ~192 kbps
Аудио 2: 48 kHz, AC3 Dolby Digital, 3/2 (L,C,R,l,r) + LFE ch, ~384 kbps
Формат субтитров: SRT

MediaInfo

Общее
Полное имя : D:\Wizards of Waverly Place - The Movie (2009) DVDRip (Rus, Eng).avi
Формат : AVI
Формат/Информация : Audio Video Interleave
Размер файла : 1,46 Гбайт
Продолжительность : 1 ч. 34 м.
Общий поток : 2231 Кбит/сек
Название фильма : Wizards of Waverly Place - The Movie (2009) DVDRip (Rus, Eng)
Режиссёр : Maksmet
Программа кодирования : VirtualDubModRus 1.5.10.2 (build 2542/release)
Формат оригинала/Имя : Movie
Примечание : 08.02.2016
Видео
Идентификатор : 0
Формат : MPEG-4 Visual
Профиль формата : Advanced Simple@L5
Параметр BVOP формата : 1
Параметр QPel формата : Нет
Параметр GMC формата : Без точки перехода
Параметр матрицы формата : Выборочная
Идентификатор кодека : XVID
Идентификатор кодека/Подсказка : XviD
Продолжительность : 1 ч. 34 м.
Битрейт : 1640 Кбит/сек
Ширина : 704 пикселя
Высота : 384 пикселя
Соотношение сторон : 1,85:1
Частота кадров : 25,000 кадров/сек
Цветовое пространство : YUV
Субдискретизация насыщенности : 4:2:0
Битовая глубина : 8 бит
Тип развёртки : Прогрессивная
Метод сжатия : С потерями
Бит/(Пиксели*Кадры) : 0.243
Размер потока : 1,08 Гбайт (74%)
Библиотека кодирования : XviD 1.2.1 (UTC 2008-12-04)
Аудио #1
Идентификатор : 1
Формат : AC-3
Формат/Информация : Audio Coding 3
Профиль формата : Dolby Digital
Расширение режима : CM (complete main)
Параметр Endianness формата : Big
Идентификатор кодека : 2000
Продолжительность : 1 ч. 34 м.
Вид битрейта : Постоянный
Битрейт : 192 Кбит/сек
Каналы : 2 канала
Расположение каналов : Front: L R
Частота : 48,0 КГц
Метод сжатия : С потерями
Задержка видео : 1 с. 0 мс.
Размер потока : 129 Мбайт (9%)
Выравнивание : Разделение по промежуткам
Продолжительность промежутка : 40 мс. (1,00 видеокадр)
Время предзагрузки промежутка : 500 мс.
Аудио #2
Идентификатор : 2
Формат : AC-3
Формат/Информация : Audio Coding 3
Расширение режима : CM (complete main)
Параметр Endianness формата : Big
Идентификатор кодека : 2000
Продолжительность : 1 ч. 34 м.
Вид битрейта : Постоянный
Битрейт : 384 Кбит/сек
Каналы : 6 каналов
Расположение каналов : Front: L C R, Side: L R, LFE
Частота : 48,0 КГц
Метод сжатия : С потерями
Задержка видео : 1 с. 0 мс.
Размер потока : 258 Мбайт (17%)
Выравнивание : Разделение по промежуткам
Продолжительность промежутка : 40 мс. (1,00 видеокадр)
Время предзагрузки промежутка : 500 мс.

Скриншот c названием фильма

Скриншоты


-
Сообщения из этой темы [9 шт.] были выделены в отдельную тему Выделено из: Волшебники из Вэйверли Плэйс в кино / Wizards of Waverly Place: The Movie (Лев Л. Спиро / Lev L. Spiro) [2009, США, фэнтези, комедия, приключения, DVD [5167829]
filolya
[Профиль] [ЛС]

Создавать темы 12-Июн-2016 07:56 (спустя 4 месяца 1 день)

Топик был перенесен из форума Фильмы 2011 года в форум Фильмы 2009 года
Russian Mafia
 
Показать сообщения:    

Текущее время: Сегодня 00:35

Часовой пояс: GMT



Вы не можете начинать темы
Вы не можете отвечать на сообщения
Вы не можете редактировать свои сообщения
Вы не можете удалять свои сообщения
Вы не можете голосовать в опросах
Вы не можете прикреплять файлы к сообщениям
Вы не можете скачивать файлы