Волшебная сила (Наум Бирман)[1970, мюзикл, комедия, семейный, DVDRip]

 
Автор Сообщение

sergej644 ®

Пол:

Стаж: 4 года 11 месяцев

Сообщений: 6046

Откуда: Soviet Union



Награды: Нет

Торрент-статистика

Создавать темы 11-Июл-2015 11:14

[Цитировать]

--Волшебная сила Страна: СССР
Производство: Гостелерадио, Ленфильм
Жанр: мюзикл, комедия, семейный
Год выпуска: 1970
Продолжительность: 01:04:54
Перевод: не требуется
Оригинальная аудиодорожка: русский
Cубтитры: нет
Режиссер: Наум Бирман
В ролях:
Аркадий Райкин, Людмила Сенчина, Николай Трофимов, Константин Ценкаев, Нина Ургант, Татьяна Доронина, Игорь Королев, Людмила Васютинская, Павел Панков, Анна Лисянская...
Описание:
Волшебная сила искусства - музыкальный фильм режиссёра Наума Бирмана, состоящий из трех новелл.
«Мстители из 2-го В»
В ролях: Людмила Сенчина — учительница; Трофимов, Николай Николаевич — директор школы; Костя Ценкаев — Денис Кораблёв; Мила Васютинская — Алёнка; Игорь Богданов — Мишка
Учеников второго класса ведут в кино на приключенческий фильм. Забыв, что они в кинотеатре, ребята решают помочь «нашим».
«Здравствуй, Пушкин!»
В ролях: Нина Ургант — мама Вовы, Таня Доронина — Света, Игорь Королёв — Вова, Ваня Цанов, Слава Горошенков, Дима Рапопорт
О мальчике, объясняющемся в любви девочке при помощи поэмы Пушкина «Евгений Онегин».
«Волшебная сила искусства»
В ролях: Аркадий Райкин — артист, Павел Панков — Мордатенков, Анна Лисянская — Мордатенкова, Ирина Гошева — Елена Сергеевна Сергеева
Но самая знаменитая новелла — заглавная. Бывший ученик помогает старушке учительнице перевоспитать хамов-соседей по коммуналке. Фразы "Ну что, старый таракан, в лоб захотел? Так я тебе брызну!", "Святое дело, мама с папой"... — стали крылатыми.- -Исходник: DVD5 R5
Тип релиза: DVDRip
Контейнер: AVI
Видео: 720x544 (4:3), 25 fps, XviD ~ 2399 kbps avg, 0.245 bit/pixel
Аудио: 48 kHz, Dolby AC3 5.1, 448 kbps

MediaInfo

Общее
Полное имя                               : Volshebnaja.sila.1970.DVDRip_[Youtracker]_by_AVP Studio.avi
Формат                                   : AVI
Формат/Информация                        : Audio Video Interleave
Размер файла                             : 1,30 Гбайт
Продолжительность                        : 1 ч. 4 м.
Общий поток                              : 2857 Кбит/сек
Программа кодирования                    : VirtualDubModRus 1.5.10.2 (build 2542/release)
Библиотека кодирования                   : VirtualDubMod build 2542/release
Видео
Идентификатор                            : 0
Формат                                   : MPEG-4 Visual
Профиль формата                          : Advanced Simple@L5
Параметр BVOP формата                    : 1
Параметр QPel формата                    : Нет
Параметр GMC формата                     : Без точки перехода
Параметр матрицы формата                 : Выборочная
Идентификатор кодека                     : XVID
Идентификатор кодека/Подсказка           : XviD
Продолжительность                        : 1 ч. 4 м.
Битрейт                                  : 2399 Кбит/сек
Ширина                                   : 720 пикселей
Высота                                   : 544 пикселя
Соотношение сторон                       : 4:3
Частота кадров                           : 25,000 кадров/сек
Цветовое пространство                    : YUV
Субдискретизация насыщенности            : 4:2:0
Битовая глубина                          : 8 бит
Тип развёртки                            : Прогрессивная
Метод сжатия                             : С потерями
Бит/(Пиксели*Кадры)                      : 0.245
Размер потока                            : 1,09 Гбайт (84%)
Библиотека кодирования                   : XviD 65
Аудио
Идентификатор                            : 1
Формат                                   : AC-3
Формат/Информация                        : Audio Coding 3
Расширение режима                        : CM (complete main)
Идентификатор кодека                     : 2000
Продолжительность                        : 1 ч. 4 м.
Вид битрейта                             : Постоянный
Битрейт                                  : 448 Кбит/сек
Каналы                                   : 6 каналов
Расположение каналов                     : Front: L C R, Side: L R, LFE
Частота                                  : 48,0 КГц
Битовая глубина                          : 16 бит
Метод сжатия                             : С потерями
Задержка видео                           : 156 мс.
Размер потока                            : 208 Мбайт (16%)
Выравнивание                             : Разделение по промежуткам
Продолжительность промежутка             : 40  мс. (1,00 видеокадр)
Время предзагрузки промежутка            : 500  мс

Скриншоты

--


Последний раз редактировалось: sergej644 (2015-08-07 15:20), всего редактировалось 1 раз
[Профиль] [ЛС]
Показать сообщения:    

Текущее время: Сегодня 11:07

Часовой пояс: GMT



Вы не можете начинать темы
Вы не можете отвечать на сообщения
Вы не можете редактировать свои сообщения
Вы не можете удалять свои сообщения
Вы не можете голосовать в опросах
Вы не можете прикреплять файлы к сообщениям
Вы не можете скачивать файлы