Волчья шкура (Мунавар Мансурходжаев) [1982, рисованный мультфильм, SATRip]

 
Автор Сообщение

TorrentFilm ®

Пол:

Стаж: 2 года

Сообщений: 7741



Награды: Нет

Торрент-статистика

Создавать темы 07-Июн-2015 00:04

[Цитировать]

Волчья шкура
Страна: СССР
Производство: Таджикфильм
Жанр: рисованный мультфильм
Продолжительность: 00:08:05
Год выпуска: 1982
Русские субтитры: нет
Режиссёр: Мунавар Мансурходжаев
Роли озвучивали: Т. Жукова, В. Игнатьева, Т. Садыкова, С. Никитин, А. Попков
Описание: О трех друзьях, которые сумели напугать злых волков.
Качество: SATRip
Формат: AVI
Видео: 720x544 (1.32:1), 25 fps, XviD MPEG-4 ~1978 kbps avg, 0.202 bit/pixel
Аудио: 44.1 kHz, MPEG Layer 3, 1 ch, ~128.00 kbps avg
Субтитры: Отсутствуют

Подробные технические данные

GeneralComplete name : E:\1\мультики\Волчья шкура 1982.aviFormat : AVIFormat/Info : Audio Video InterleaveFile size : 122 MiBDuration : 8mn 5sOverall bit rate : 2 116 KbpsWriting application : VirtualDubMod 1.5.10.3 | www.virtualdub-fr.org || (build 2550/release)Writing library : VirtualDubMod build 2550/release
VideoID : 0Format : MPEG-4 VisualFormat profile : Advanced Simple@L5Format settings, BVOP : 2Format settings, QPel : NoFormat settings, GMC : No warppointsFormat settings, Matrix : Default (H.263)Codec ID : XVIDCodec ID/Hint : XviDDuration : 8mn 5sBit rate : 1 978 KbpsWidth : 720 pixelsHeight : 544 pixelsDisplay aspect ratio : 4:3Frame rate : 25.000 fpsColor space : YUVChroma subsampling : 4:2:0Bit depth : 8 bitsScan type : ProgressiveCompression mode : LossyBits/(Pixel*Frame) : 0.202Stream size : 114 MiB (93%)Writing library : XviD 1.2.1 (UTC 2008-12-04)
AudioID : 1Format : MPEG AudioFormat version : Version 1Format profile : Layer 3Codec ID : 55Codec ID/Hint : MP3Duration : 8mn 5sBit rate mode : ConstantBit rate : 128 KbpsChannel count : 1 channelSampling rate : 44.1 KHzCompression mode : LossyStream size : 7.40 MiB (6%)Alignment : Split accross interleavesInterleave, duration : 40 ms (1.00 video frame)Interleave, preload duration : 500 msWriting library : LAME3.99rEncoding settings : -m m -V 4 -q 2 -lowpass 20.5 -b 128

Скриншоты

[Профиль] [ЛС]
Показать сообщения:    

Текущее время: Сегодня 10:04

Часовой пояс: GMT



Вы не можете начинать темы
Вы не можете отвечать на сообщения
Вы не можете редактировать свои сообщения
Вы не можете удалять свои сообщения
Вы не можете голосовать в опросах
Вы не можете прикреплять файлы к сообщениям
Вы не можете скачивать файлы