Волчьи дети Амэ и Юки / Ookami kodomo no Ame to Yuki (2012) BDRip 720p

 
Автор Сообщение

Russian Mafia ®

Пол:

Стаж: 1 год 8 месяцев

Сообщений: 4256



Награды: 10 (Подробнее)

Mega Seeder 5 (Количество: 1) Mega Seeder 4 (Количество: 1) Top Releaser 4 (Количество: 1)
Торрент-статистика

Создавать темы 23-Июл-2016 06:41

[Цитировать]

Информация о фильме
Название: Волчьи дети Амэ и Юки
Оригинальное название: Ookami kodomo no Ame to Yuki
Год выхода: 2012
Жанр: аниме, мультфильм, фэнтези
Режиссер: Мамору Хосода
В ролях: Аои Миядзаки, Такао Осава, Хару Куроки, Юкито Нисии, Момока Оно, Амон Кабе, Такума Хираока, Мэгуми Хаясибара, Тадаси Накамура, Тамио Оки
О фильме: Юки и Амэ — только с виду обычные дети, которым должны быть нипочем тяготы окружающего мира. Когда погибает их отец, последний представитель древнего рода оборотней, их матери — обыкновенной девушке, когда-то влюбившейся в человека, оказавшегося волком — приходится переехать подальше от большого города и начать все сначала.

Выпущено: Studio Chizu
Продолжительность: 01:57:02
Перевод: Дублированный (лицензия)
Файл
Кодек: x264
Качество: BDRip (источник: Blu-ray Disc)
Видео: 1280x720 (16:9), 23.976 fps, 3200 kbps
Аудио #1: AC-3, 6 ch, 448 kbps (Rus)
Аудио #2: AC-3, 6 ch, 448 kbps (Jpn)
Субтитры: Русские (форс, полные)
Скачать: сэмпл
Скриншоты

MI

Общее
Уникальный идентификатор : 220319964677058482262439654996979047800 (0xA5C014EC5FDEA7CF8D48BA856A415D78)
Полное имя : Ookami.kodomo.no.Ame.to.Yuki.2012.BDRip.720p.Rus.Jpn.mkv
Формат : Matroska
Версия формата : Version 2
Размер файла : 3,35 Гбайт
Продолжительность : 1 ч. 57 м.
Общий поток : 4096 Кбит/сек
Название фильма : Волчьи дети Амэ и Юки / Ookami kodomo no Ame to Yuki (2012)
Дата кодирования : UTC 2014-04-08 17:07:15
Программа кодирования : mkvmerge v5.8.0 ('No Sleep / Pillow') built on Sep 2 2012 15:37:04
Библиотека кодирования : libebml v1.2.3 + libmatroska v1.3.0
Видео
Идентификатор : 1
Формат : AVC
Формат/Информация : Advanced Video Codec
Профиль формата : High@L4.1
Параметр CABAC формата : Да
Параметр ReFrames формата : 9 кадров
Идентификатор кодека : V_MPEG4/ISO/AVC
Продолжительность : 1 ч. 57 м.
Битрейт : 3198 Кбит/сек
Ширина : 1280 пикселей
Высота : 720 пикселей
Соотношение сторон : 16:9
Режим частоты кадров : Постоянный
Частота кадров : 23,976 кадра/сек
Цветовое пространство : YUV
Субдискретизация насыщенности : 4:2:0
Битовая глубина : 8 бит
Тип развёртки : Прогрессивная
Бит/(Пиксели*Кадры) : 0.145
Размер потока : 2,55 Гбайт (76%)
Заголовок : Release by AlexKa
Библиотека кодирования : x264 core 142 r2409 d6b4e63
Настройки программы : cabac=1 / ref=9 / deblock=1:0:0 / analyse=0x3:0x133 / me=umh / subme=11 / psy=1 / psy_rd=1.00:0.00 / mixed_ref=1 / me_range=32 / chroma_me=1 / trellis=2 / 8x8dct=1 / cqm=0 / deadzone=21,11 / fast_pskip=0 / chroma_qp_offset=-2 / threads=12 / lookahead_threads=2 / sliced_threads=0 / nr=0 / decimate=1 / interlaced=0 / bluray_compat=0 / constrained_intra=0 / bframes=9 / b_pyramid=2 / b_adapt=2 / b_bias=0 / direct=3 / weightb=1 / open_gop=0 / weightp=2 / keyint=240 / keyint_min=23 / scenecut=40 / intra_refresh=0 / rc=2pass / mbtree=0 / bitrate=3198 / ratetol=1.0 / qcomp=0.60 / qpmin=0 / qpmax=69 / qpstep=4 / cplxblur=20.0 / qblur=0.5 / ip_ratio=1.40 / pb_ratio=1.30 / aq=1:1.00
Язык : Japanese
Аудио #1
Идентификатор : 2
Формат : AC-3
Формат/Информация : Audio Coding 3
Расширение режима : CM (complete main)
Параметр Endianness формата : Big
Идентификатор кодека : A_AC3
Продолжительность : 1 ч. 57 м.
Вид битрейта : Постоянный
Битрейт : 448 Кбит/сек
Каналы : 6 каналов
Расположение каналов : Front: L C R, Side: L R, LFE
Частота : 48,0 КГц
Битовая глубина : 16 бит
Метод сжатия : С потерями
Размер потока : 375 Мбайт (11%)
Заголовок : Rus
Язык : Russian
Аудио #2
Идентификатор : 3
Формат : AC-3
Формат/Информация : Audio Coding 3
Расширение режима : CM (complete main)
Параметр Endianness формата : Big
Идентификатор кодека : A_AC3
Продолжительность : 1 ч. 57 м.
Вид битрейта : Постоянный
Битрейт : 448 Кбит/сек
Каналы : 6 каналов
Расположение каналов : Front: L C R, Side: L R, LFE
Частота : 48,0 КГц
Битовая глубина : 16 бит
Метод сжатия : С потерями
Размер потока : 375 Мбайт (11%)
Заголовок : Jpn
Язык : Japanese
Текст #1
Идентификатор : 4
Формат : UTF-8
Идентификатор кодека : S_TEXT/UTF8
Идентификатор кодека/Информация : UTF-8 Plain Text
Заголовок : Rus forced
Язык : Russian
Текст #2
Идентификатор : 5
Формат : UTF-8
Идентификатор кодека : S_TEXT/UTF8
Идентификатор кодека/Информация : UTF-8 Plain Text
Заголовок : Rus
Язык : Russian
Меню
00:00:00.000 : :Chapter 01
00:00:28.319 : :Chapter 02
00:10:32.340 : :Chapter 03
00:14:00.089 : :Chapter 04
00:22:21.506 : :Chapter 05
00:29:44.282 : :Chapter 06
00:38:44.238 : :Chapter 07
00:48:30.157 : :Chapter 08
00:53:34.711 : :Chapter 09
01:04:37.206 : :Chapter 10
01:10:47.284 : :Chapter 11
01:17:58.048 : :Chapter 13
01:25:09.354 : :Chapter 14
01:37:44.108 : :Chapter 15
01:44:34.309 : :Chapter 16
01:51:48.118 : :Chapter 17
01:57:01.556 : :Chapter 18
01:57:20.992 : :Chapter 19

x264

x264 [info]: frame I:1324 Avg QP:11.92 size:179175
x264 [info]: frame P:33517 Avg QP:13.46 size: 33775
x264 [info]: frame B:133508 Avg QP:13.60 size: 10766
x264 [info]: consecutive B-frames: 1.7% 1.5% 5.5% 30.9% 9.9% 11.7% 5.8% 24.8% 5.1% 3.2%
[Профиль] [ЛС]
Показать сообщения:    

Текущее время: Сегодня 08:57

Часовой пояс: GMT



Вы не можете начинать темы
Вы не можете отвечать на сообщения
Вы не можете редактировать свои сообщения
Вы не можете удалять свои сообщения
Вы не можете голосовать в опросах
Вы не можете прикреплять файлы к сообщениям
Вы не можете скачивать файлы