Волк / El Lobo (2004) DVDRip

 
Автор Сообщение

sergej644 ®

Пол:

Стаж: 4 года 11 месяцев

Сообщений: 6041

Откуда: Soviet Union



Награды: Нет

Торрент-статистика

Создавать темы 13-Авг-2014 21:08

[Цитировать]

-Волк / El Lobo (2004) DVDRip- Год выпуска: 2004
Производство: Испания, Castelao Producciones
Жанр: Триллер
Режиссер: Мигель Кортюс
Актеры: Эдуардо Норьега, Хосе Коронадо, Мелани Дотей, Сильвия Абаскал, Сантьяго Рамос, Патрик Брюэль, Хорхе Санс, Манкэль Зарзо, Фернандо Кайо, Хуан Фернандез
Описание фильма:
Спецслужбы арестовывают Хосе за связь с боевиками из террористической организации ЭТА и вынуждают его стать их лазутчиком в логове могущественной группировки боевиков. Отныне его прозвище — «Волк», его задача — заслужив доверие хладнокровных убийц и бывалых подпольщиков, в одиночку проникнуть в круг главарей. Но когда неожиданные события меняют планы властей, Волк тоже становится их мишенью. Теперь его враги с обеих сторон…
Перевод: Профессиональный двухголосый
Субтитры: Отсутствуют

Продолжительность: 01:59:15
Качество видео: DVDRip
Видеокодек: XviD
Битрейт видео: ~1367 Кбит/с
Размер кадра: 704x304
Аудиокодек: AC3 6 ch
Битрейт аудио: 384 Кбит/с
Награды и номинации

MediaInfo:

Общее
Полное имя : C:\NNM\Волк\Volk 2004 DVDRip.avi
Формат : AVI
Формат/Информация : Audio Video Interleave
Размер файла : 1,47 Гбайт
Продолжительность : 1 ч. 59 м.
Общий поток : 1761 Кбит/сек
Программа кодирования : VirtualDubMod 1.5.10.3
Библиотека кодирования : VirtualDubMod build 2550/release
Видео
Идентификатор : 0
Формат : MPEG-4 Visual
Профиль формата : Advanced Simple@L5
Параметр BVOP формата : 1
Параметр QPel формата : Нет
Параметр GMC формата : Без точки перехода
Параметр матрицы формата : Выборочная
Идентификатор кодека : XVID
Идентификатор кодека/Подсказка : XviD
Продолжительность : 1 ч. 59 м.
Битрейт : 1367 Кбит/сек
Ширина : 704 пикселя
Высота : 304 пикселя
Соотношение сторон : 2,35:1
Частота кадров : 25,000 кадров/сек
Цветовое пространство : YUV
Субдискретизация насыщенности : 4:2:0
Битовая глубина : 8 бит
Тип развёртки : Прогрессивная
Метод сжатия : С потерями
Бит/(Пиксели*Кадры) : 0.255
Размер потока : 1,14 Гбайт (78%)
Библиотека кодирования : XviD 1.2.1 (UTC 2008-12-04)
Аудио
Идентификатор : 1
Формат : AC-3
Формат/Информация : Audio Coding 3
Расширение режима : CM (complete main)
Идентификатор кодека : 2000
Продолжительность : 1 ч. 59 м.
Вид битрейта : Постоянный
Битрейт : 384 Кбит/сек
Каналы : 6 каналов
Расположение каналов : Front: L C R, Side: L R, LFE
Частота : 48,0 КГц
Битовая глубина : 16 бит
Метод сжатия : С потерями
Размер потока : 328 Мбайт (22%)
Выравнивание : Разделение по промежуткам
Продолжительность промежутка : 40 мс. (1,00 видеокадр)
Время предзагрузки промежутка : 500 мс.
Скриншоты:
Время раздачи: Круглосуточно до 10 скачавших
[Профиль] [ЛС]

Создавать темы 06-Авг-2015 23:17 (спустя 11 месяцев 24 дня)

Топик был перенесен из форума Фильмы до 2014 года в форум Фильмы до 2012 года
sergej644
 
Показать сообщения:    

Текущее время: Сегодня 01:09

Часовой пояс: GMT



Вы не можете начинать темы
Вы не можете отвечать на сообщения
Вы не можете редактировать свои сообщения
Вы не можете удалять свои сообщения
Вы не можете голосовать в опросах
Вы не можете прикреплять файлы к сообщениям
Вы не можете скачивать файлы