Волк с Уолл-стрит / The Wolf of Wall Street (2013) BDRip 1080p

 
Автор Сообщение

sergej644 ®

Пол:

Стаж: 4 года 11 месяцев

Сообщений: 6046

Откуда: Soviet Union



Награды: Нет

Торрент-статистика

Создавать темы 21-Янв-2015 00:24

[Цитировать]

Информация о фильме
Название: Волк с Уолл-стрит
Оригинальное название: The Wolf of Wall Street
Год выхода: 2013
Жанр: драма, комедия, криминал, биография
Режиссер: Мартин Скорсезе
В ролях: Леонардо ДиКаприо, Джона Хилл, Марго Робби, Кайл Чандлер, Роб Райнер, П.Дж. Бирн, Джон Бернтал, Кристин Милиоти, Жан Дюжарден, Мэттью МакКонахи
О фильме: 1987 год. Джордан Белфорт становится брокером в успешном инвестиционном банке. Вскоре банк закрывается после внезапного обвала индекса Доу-Джонса. По совету жены Терезы Джордан устраивается в небольшое заведение, занимающееся мелкими акциями. Его настойчивый стиль общения с клиентами и врождённая харизма быстро даёт свои плоды. Он знакомится с соседом по дому Донни, торговцем, который сразу находит общий язык с Джорданом и решает открыть с ним собственную фирму. В качестве сотрудников они нанимают нескольких друзей Белфорта, его отца Макса и называют компанию «Стрэттон Оукмонт». В свободное от работы время Джордан прожигает жизнь: лавирует от одной вечеринки к другой, вступает в сексуальные отношения с проститутками, употребляет множество наркотических препаратов, в том числе кокаин и кваалюд. Однажды наступает момент, когда быстрым обогащением Белфорта начинает интересоваться агент ФБР…

Выпущено: Paramount Pictures
Продолжительность: 02:59:52
Перевод: Дублированный (Пифагор)
Файл
Кодек: x264
Качество: BDRip (источник: Blu-ray Disc)
Видео: 1920x800 (2,40:1), 23.976 fps, 7890 kbps
Аудио #1: AC-3, 6 ch, 448 kbps (Rus)
Аудио #2: AC-3, 6 ch, 640 kbps (Eng)
Субтитры: Русские, Английские
Скачать: сэмплСкриншоты

MI

Общее
Уникальный идентификатор                 : 202936985101177794065527197129235411835 (0x98AC3DDC50D8E60CBCAA68250452B37B)
Полное имя                               : The.Wolf.of.Wall.Street.2013.BDRip.1080p.Rus.Eng.mkv
Формат                                   : Matroska
Версия формата                           : Version 2
Размер файла                             : 11,3 Гбайт
Продолжительность                        : 2 ч. 59 м.
Общий поток                              : 8979 Кбит/сек
Название фильма                          : Волк с Уолл-стрит / The Wolf of Wall Street (2013)
Дата кодирования                         : UTC 2014-06-03 19:17:33
Программа кодирования                    : mkvmerge v5.8.0 ('No Sleep / Pillow') built on Sep  2 2012 15:37:04
Библиотека кодирования                   : libebml v1.2.3 + libmatroska v1.3.0
Видео
Идентификатор                            : 1
Формат                                   : AVC
Формат/Информация                        : Advanced Video Codec
Профиль формата                          : High@L4.1
Параметр CABAC формата                   : Да
Параметр ReFrames формата                : 5 кадров
Идентификатор кодека                     : V_MPEG4/ISO/AVC
Продолжительность                        : 2 ч. 59 м.
Битрейт                                  : 7890 Кбит/сек
Ширина                                   : 1920 пикселей
Высота                                   : 800 пикселей
Соотношение сторон                       : 2,40:1
Режим частоты кадров                     : Постоянный
Частота кадров                           : 23,976 кадра/сек
Цветовое пространство                    : YUV
Субдискретизация насыщенности            : 4:2:0
Битовая глубина                          : 8 бит
Тип развёртки                            : Прогрессивная
Бит/(Пиксели*Кадры)                      : 0.214
Размер потока                            : 9,69 Гбайт (86%)
Заголовок                                : Release by AlexKa
Библиотека кодирования                   : x264 core 142 r2409 d6b4e63
Настройки программы                      : cabac=1 / ref=5 / deblock=1:-3:-3 / analyse=0x3:0x133 / me=umh / subme=11 / psy=1 / psy_rd=1.00:0.00 / mixed_ref=1 / me_range=32 / chroma_me=1 / trellis=2 / 8x8dct=1 / cqm=0 / deadzone=21,11 / fast_pskip=0 / chroma_qp_offset=-2 / threads=12 / lookahead_threads=2 / sliced_threads=0 / nr=0 / decimate=1 / interlaced=0 / bluray_compat=0 / constrained_intra=0 / bframes=9 / b_pyramid=2 / b_adapt=2 / b_bias=0 / direct=3 / weightb=1 / open_gop=0 / weightp=2 / keyint=240 / keyint_min=23 / scenecut=40 / intra_refresh=0 / rc=2pass / mbtree=0 / bitrate=7890 / ratetol=1.0 / qcomp=0.60 / qpmin=0 / qpmax=69 / qpstep=4 / cplxblur=20.0 / qblur=0.5 / ip_ratio=1.40 / pb_ratio=1.30 / aq=1:0.90
Язык                                     : English
Аудио #1
Идентификатор                            : 2
Формат                                   : AC-3
Формат/Информация                        : Audio Coding 3
Расширение режима                        : CM (complete main)
Параметр Endianness формата              : Big
Идентификатор кодека                     : A_AC3
Продолжительность                        : 2 ч. 59 м.
Вид битрейта                             : Постоянный
Битрейт                                  : 448 Кбит/сек
Каналы                                   : 6 каналов
Расположение каналов                     : Front: L C R, Side: L R, LFE
Частота                                  : 48,0 КГц
Битовая глубина                          : 16 бит
Метод сжатия                             : С потерями
Размер потока                            : 576 Мбайт (5%)
Заголовок                                : Rus
Язык                                     : Russian
Аудио #2
Идентификатор                            : 3
Формат                                   : AC-3
Формат/Информация                        : Audio Coding 3
Расширение режима                        : CM (complete main)
Параметр Endianness формата              : Big
Идентификатор кодека                     : A_AC3
Продолжительность                        : 2 ч. 59 м.
Вид битрейта                             : Постоянный
Битрейт                                  : 640 Кбит/сек
Каналы                                   : 6 каналов
Расположение каналов                     : Front: L C R, Side: L R, LFE
Частота                                  : 48,0 КГц
Битовая глубина                          : 16 бит
Метод сжатия                             : С потерями
Размер потока                            : 823 Мбайт (7%)
Заголовок                                : Eng
Язык                                     : English
Текст #1
Идентификатор                            : 4
Формат                                   : UTF-8
Идентификатор кодека                     : S_TEXT/UTF8
Идентификатор кодека/Информация          : UTF-8 Plain Text
Заголовок                                : Rus
Язык                                     : Russian
Текст #2
Идентификатор                            : 5
Формат                                   : UTF-8
Идентификатор кодека                     : S_TEXT/UTF8
Идентификатор кодека/Информация          : UTF-8 Plain Text
Заголовок                                : Eng
Язык                                     : English
Меню
00:00:00.000                             : :Chapter 01
00:07:55.933                             : :Chapter 02
00:14:17.857                             : :Chapter 03
00:21:31.415                             : :Chapter 04
00:32:08.092                             : :Chapter 05
00:40:14.495                             : :Chapter 06
00:48:33.577                             : :Chapter 07
00:55:21.776                             : :Chapter 08
01:01:56.045                             : :Chapter 09
01:07:00.474                             : :Chapter 10
01:11:28.909                             : :Chapter 11
01:19:49.868                             : :Chapter 12
01:29:06.883                             : :Chapter 13
01:37:47.403                             : :Chapter 14
01:45:11.930                             : :Chapter 15
01:54:39.998                             : :Chapter 16
02:03:20.184                             : :Chapter 17
02:07:28.015                             : :Chapter 18
02:17:12.849                             : :Chapter 19
02:25:25.466                             : :Chapter 20
02:32:08.619                             : :Chapter 21
02:36:38.722                             : :Chapter 22
02:44:19.266                             : :Chapter 23
02:53:04.290                             : :Chapter 24
02:59:52.156                             : :Chapter 25

x264

x264 [info]: frame I:2031  Avg QP:15.50  size:205185
x264 [info]: frame P:53362 Avg QP:18.17  size: 72894
x264 [info]: frame B:203365 Avg QP:20.10  size: 31152
x264 [info]: consecutive B-frames:  1.6%  1.7%  9.8% 13.7% 15.1% 47.3%  5.8%  2.5%  1.4%  1.2%
[Профиль] [ЛС]
Кто просматривает тему:

Показать сообщения:    

Текущее время: Сегодня 08:19

Часовой пояс: GMT



Вы не можете начинать темы
Вы не можете отвечать на сообщения
Вы не можете редактировать свои сообщения
Вы не можете удалять свои сообщения
Вы не можете голосовать в опросах
Вы не можете прикреплять файлы к сообщениям
Вы не можете скачивать файлы