Волк с Уолл-стрит / The Wolf of Wall Street (Мартин Скорсезе / Martin Scorsese) [2013, США, драма, комедия, криминал, биография, BDRip] Dub + Original Eng + Subs

 
Автор Сообщение

sergej644 ®

Пол:

Стаж: 4 года 11 месяцев

Сообщений: 6035

Откуда: Soviet Union



Награды: Нет

Торрент-статистика

Создавать темы 20-Окт-2014 11:55

[Цитировать]

Волк с Уолл-стрит / The Wolf of Wall Street- Страна: США / Appian Way, EMJAG Productions, Red Granite Pictures, Sikelia Productions
Жанр: драма, комедия, криминал, биография
Год выпуска: 2013
Продолжительность: 02:59:52
Перевод: Профессиональный (дублированный) студия «Пифагор»
Cубтитры: Rus (full Voronine+full Notabenoid & АДмин) + Eng (full+full SDH+full SDH-Colored) внешние
Оригинальная аудиодорожка: английский
Режиссёр: Мартин Скорсезе / Martin Scorsese
В ролях: Леонардо ДиКаприо, Джона Хилл, Марго Робби, Кайл Чандлер, Роб Райнер, П.Дж. Бирн, Джон Бернтал, Кристин Милиоти, Жан Дюжарден, Мэттью МакКонахи, Кеннет Чои, Джон Фавро, Джоанна Ламли.
Описание: 1987 год. Джордан Белфорт становится брокером в успешном инвестиционном банке. Вскоре банк закрывается после внезапного обвала индекса Доу-Джонса. По совету жены Терезы Джордан устраивается в небольшое заведение, занимающееся мелкими акциями. Его настойчивый стиль общения с клиентами и врождённая харизма быстро даёт свои плоды. Он знакомится с соседом по дому Донни, торговцем, который сразу находит общий язык с Джорданом и решает открыть с ним собственную фирму. В качестве сотрудников они нанимают нескольких друзей Белфорта, его отца Макса и называют компанию «Стрэттон Оукмонт».-Рейтинг
imdb.com: 8.30 (430 086)
kinopoisk.ru: 8.018 (112 456)
MPAA: - лицам до 17 лет обязательно присутствие взрослого-Сэмпл: http://multi-up.com/1001049-Качество видео: BDRip [T_WOLF_WSTRT_BLUEBIRD]
Формат видео: AVI
Видео: XviD build 65, 720x304 (2.37:1), 23.976 fps, ~1536 kbps avg, 0.293 bit/pixel
Аудио 1: 48 kHz, AC3 Dolby Digital, 3/2 (L,C,R,l,r) + LFE ch, ~384 kbps avg (RUS)
Аудио 2: 48 kHz, AC3 Dolby Digital, 3/2 (L,C,R,l,r) + LFE ch, ~384 kbps avg (ENG)
Формат субтитров: softsub (SRT)
-

MediaInfo

Общее
Полное имя : D:\The.Wolf.of.Wall.Street.2013.DUAL.BDRip.2,91Gb.XviD.AC3\The.Wolf.of.Wall.Street.2013.DUAL.BDRip.2,91Gb.XviD.AC3.avi
Формат : AVI
Формат/Информация : Audio Video Interleave
Профиль формата : OpenDML
Размер файла : 2,91 Гбайт
Продолжительность : 2 ч. 59 м.
Общий поток : 2319 Кбит/сек
Название фильма : The Wolf of Wall Street 2013
Режиссёр : Martin Scorsese
Дата записи : 23.03.2014
Программа кодирования : VirtualDubModRus 1.5.10.2 (build 2542/release)
Библиотека кодирования : VirtualDubMod build 2542/release
Правообладатель : Rutracker.org
Примечание : MooN_WalkeR
Видео
Идентификатор : 0
Формат : MPEG-4 Visual
Профиль формата : Advanced Simple@L5
Параметр BVOP формата : 1
Параметр QPel формата : Нет
Параметр GMC формата : Без точки перехода
Параметр матрицы формата : Выборочная
Идентификатор кодека : XVID
Идентификатор кодека/Подсказка : XviD
Продолжительность : 2 ч. 59 м.
Битрейт : 1536 Кбит/сек
Ширина : 720 пикселей
Высота : 304 пикселя
Соотношение сторон : 2,35:1
Частота кадров : 23,976 кадра/сек
Цветовое пространство : YUV
Субдискретизация насыщенности : 4:2:0
Битовая глубина : 8 бит
Тип развёртки : Прогрессивная
Метод сжатия : С потерями
Бит/(Пиксели*Кадры) : 0.293
Размер потока : 1,93 Гбайт (66%)
Библиотека кодирования : XviD 65
Аудио #1
Идентификатор : 1
Формат : AC-3
Формат/Информация : Audio Coding 3
Расширение режима : CM (complete main)
Параметр Endianness формата : Big
Идентификатор кодека : 2000
Продолжительность : 2 ч. 59 м.
Вид битрейта : Постоянный
Битрейт : 384 Кбит/сек
Каналы : 6 каналов
Расположение каналов : Front: L C R, Side: L R, LFE
Частота : 48,0 КГц
Битовая глубина : 16 бит
Метод сжатия : С потерями
Размер потока : 494 Мбайт (17%)
Выравнивание : Разделение по промежуткам
Продолжительность промежутка : 42 мс. (1,00 видеокадр)
Время предзагрузки промежутка : 500 мс.
Заголовок : RUS
Аудио #2
Идентификатор : 2
Формат : AC-3
Формат/Информация : Audio Coding 3
Расширение режима : CM (complete main)
Параметр Endianness формата : Big
Идентификатор кодека : 2000
Продолжительность : 2 ч. 59 м.
Вид битрейта : Постоянный
Битрейт : 384 Кбит/сек
Каналы : 6 каналов
Расположение каналов : Front: L C R, Side: L R, LFE
Частота : 48,0 КГц
Битовая глубина : 16 бит
Метод сжатия : С потерями
Размер потока : 494 Мбайт (17%)
Выравнивание : Разделение по промежуткам
Продолжительность промежутка : 42 мс. (1,00 видеокадр)
Время предзагрузки промежутка : 500 мс.
Заголовок : ENG
--
[Профиль] [ЛС]
Кто просматривает тему:

Показать сообщения:    

Текущее время: Сегодня 07:04

Часовой пояс: GMT



Вы не можете начинать темы
Вы не можете отвечать на сообщения
Вы не можете редактировать свои сообщения
Вы не можете удалять свои сообщения
Вы не можете голосовать в опросах
Вы не можете прикреплять файлы к сообщениям
Вы не можете скачивать файлы